<?xml version="1.0" standalone="no"?>
<!DOCTYPE svg PUBLIC "-//W3C//DTD SVG 1.1//EN" "http://www.w3.org/Graphics/SVG/1.1/DTD/svg11.dtd" >
<svg xmlns="http://www.w3.org/2000/svg" xmlns:xlink="http://www.w3.org/1999/xlink" version="1.1">
<metadata>
Created by FontForge 20170924 at Thu Feb  5 10:03:25 2015
 By www-data
Copyright (c) 2015 Monotype Imaging Inc.  All rights reserved.
</metadata>
<defs>
<font id="NeueHaasUnicaW1G-Regular" horiz-adv-x="576" >
  <font-face 
    font-family="Neue Haas Unica W1G"
    font-weight="400"
    font-stretch="normal"
    units-per-em="1000"
    panose-1="2 11 5 4 3 2 6 2 2 3"
    ascent="764"
    descent="-236"
    x-height="508"
    cap-height="712"
    bbox="-500 -275 1112 1093"
    underline-thickness="50"
    underline-position="-100"
    stemh="71"
    stemv="89"
    unicode-range="U+0020-FEFF"
  />
<missing-glyph horiz-adv-x="623" 
d="M151 777h321c81 0 131 -50 131 -131v-580c0 -81 -50 -131 -131 -131h-321c-80 0 -131 50 -131 131v580c0 81 51 131 131 131zM472 728h-321c-50 0 -82 -31 -82 -82v-580c0 -51 32 -82 82 -82h321c50 0 82 31 82 82v580c0 51 -32 82 -82 82zM309 646
c103 0 171 -58 171 -147c0 -55 -14 -85 -80 -143c-57 -50 -68 -72 -68 -154h-72v27c0 81 14 110 76 168c50 47 57 65 57 101c0 47 -32 76 -84 76c-59 0 -91 -33 -94 -98h-84c5 112 69 170 178 170zM343 65h-94v91h94v-91z" />
    <glyph glyph-name="f_f" unicode="ff" horiz-adv-x="578" 
d="M536 647c-49 0 -74 -23 -74 -86v-53h101v-70h-101v-438h-87v438h-186v-438h-87v438h-89v70h89v63c0 98 49 146 139 146c18 0 39 -2 51 -5v-68c-6 2 -18 3 -29 3c-49 0 -74 -23 -74 -86v-53h186v63c0 98 49 146 139 146c18 0 38 -2 51 -5v-68c-7 2 -19 3 -29 3z" />
    <glyph glyph-name="f_f_i" unicode="ffi" horiz-adv-x="822" 
d="M375 508v63c0 98 49 146 139 146c18 0 38 -2 51 -5v-68c-7 2 -19 3 -29 3c-49 0 -74 -23 -74 -86v-53h101v-70h-101v-438h-87v438h-186v-438h-87v438h-89v70h89v63c0 98 49 146 139 146c18 0 39 -2 51 -5v-68c-6 2 -18 3 -29 3c-49 0 -74 -23 -74 -86v-53h186zM744 712
v-99h-88v99h88zM656 508h88v-508h-88v508z" />
    <glyph glyph-name="f_f_l" unicode="ffl" horiz-adv-x="822" 
d="M375 508v63c0 98 49 146 139 146c18 0 38 -2 51 -5v-68c-7 2 -19 3 -29 3c-49 0 -74 -23 -74 -86v-53h101v-70h-101v-438h-87v438h-186v-438h-87v438h-89v70h89v63c0 98 49 146 139 146c18 0 39 -2 51 -5v-68c-6 2 -18 3 -29 3c-49 0 -74 -23 -74 -86v-53h186zM744 712
v-712h-88v712h88z" />
    <glyph glyph-name="f_i" unicode="fi" horiz-adv-x="549" 
d="M102 508v63c0 98 49 146 139 146c18 0 39 -2 51 -5v-68c-6 2 -18 3 -29 3c-49 0 -74 -23 -74 -86v-53h101v-70h-101v-438h-87v438h-89v70h89zM471 712v-99h-88v99h88zM383 508h88v-508h-88v508z" />
    <glyph glyph-name="f_l" unicode="fl" horiz-adv-x="549" 
d="M102 508v63c0 98 49 146 139 146c18 0 39 -2 51 -5v-68c-6 2 -18 3 -29 3c-49 0 -74 -23 -74 -86v-53h101v-70h-101v-438h-87v438h-89v70h89zM471 712v-712h-88v712h88z" />
    <glyph glyph-name=".notdef" horiz-adv-x="623" 
d="M151 777h321c81 0 131 -50 131 -131v-580c0 -81 -50 -131 -131 -131h-321c-80 0 -131 50 -131 131v580c0 81 51 131 131 131zM472 728h-321c-50 0 -82 -31 -82 -82v-580c0 -51 32 -82 82 -82h321c50 0 82 31 82 82v580c0 51 -32 82 -82 82zM309 646
c103 0 171 -58 171 -147c0 -55 -14 -85 -80 -143c-57 -50 -68 -72 -68 -154h-72v27c0 81 14 110 76 168c50 47 57 65 57 101c0 47 -32 76 -84 76c-59 0 -91 -33 -94 -98h-84c5 112 69 170 178 170zM343 65h-94v91h94v-91z" />
    <glyph glyph-name="NULL" horiz-adv-x="600" 
 />
    <glyph glyph-name="space" unicode=" " horiz-adv-x="230" 
 />
    <glyph glyph-name="exclam" unicode="!" horiz-adv-x="275" 
d="M173 175h-71l-21 537h113zM190 0h-104v106h104v-106z" />
    <glyph glyph-name="quotedbl" unicode="&#x22;" horiz-adv-x="372" 
d="M143 449h-64l-11 263h86zM293 449h-64l-11 263h87z" />
    <glyph glyph-name="numbersign" unicode="#" horiz-adv-x="649" 
d="M486 420l-26 -164h118l-11 -65h-118l-30 -191h-76l30 191h-144l-30 -191h-76l30 191h-118l10 65h119l26 164h-119l10 66h119l30 188h76l-30 -188h144l30 188h76l-30 -188h118l-11 -66h-117zM410 420h-144l-26 -164h144z" />
    <glyph glyph-name="dollar" unicode="$" horiz-adv-x="562" 
d="M520 180c0 -110 -80 -183 -208 -193v-86h-62v86c-133 11 -207 91 -208 233h89c0 -97 41 -147 119 -158v248c-97 28 -196 64 -196 194c0 105 74 174 196 183v77h62v-77c126 -11 194 -84 194 -221h-89c0 92 -36 136 -105 147v-229c107 -30 208 -61 208 -204zM144 509
c0 -66 38 -88 106 -108v213c-69 -7 -106 -42 -106 -105zM312 293v-232c77 8 118 49 118 116c0 71 -45 94 -118 116z" />
    <glyph glyph-name="percent" unicode="%" horiz-adv-x="864" 
d="M277 -30h-68l378 734h68zM198 688c98 0 153 -68 153 -190s-55 -190 -153 -190s-153 68 -153 190s55 190 153 190zM198 626c-48 0 -74 -45 -74 -128c0 -84 26 -128 74 -128s74 44 74 128c0 83 -26 128 -74 128zM666 366c98 0 153 -68 153 -190s-55 -190 -153 -190
s-153 68 -153 190s55 190 153 190zM666 304c-48 0 -74 -45 -74 -128c0 -84 26 -128 74 -128s74 44 74 128c0 83 -26 128 -74 128z" />
    <glyph glyph-name="ampersand" unicode="&#x26;" horiz-adv-x="734" 
d="M606 0l-79 80c-55 -60 -136 -95 -225 -95c-153 0 -248 84 -248 204c0 92 50 161 158 213c-63 66 -82 103 -82 166c0 94 72 158 177 158c107 0 175 -63 175 -155c0 -79 -35 -132 -135 -187l176 -177c29 51 44 116 44 192h90c-1 -99 -26 -187 -72 -254l144 -145h-123z
M307 650c-56 0 -90 -32 -90 -85c0 -43 15 -69 77 -131c82 44 102 85 102 132c0 50 -33 84 -89 84zM308 64c64 0 119 26 163 72l-207 210c-88 -45 -115 -90 -115 -153c0 -74 62 -129 159 -129z" />
    <glyph glyph-name="quotesingle" unicode="'" horiz-adv-x="222" 
d="M143 449h-64l-11 263h86z" />
    <glyph glyph-name="parenleft" unicode="(" horiz-adv-x="292" 
d="M186 741h76c-80 -146 -115 -278 -115 -444c0 -165 35 -298 115 -444h-76c-90 133 -135 269 -135 444s45 312 135 444z" />
    <glyph glyph-name="parenright" unicode=")" horiz-adv-x="292" 
d="M30 741h77c89 -132 135 -269 135 -444s-46 -311 -135 -444h-77c80 146 115 279 115 444c0 166 -35 298 -115 444z" />
    <glyph glyph-name="asterisk" unicode="*" horiz-adv-x="407" 
d="M227 575l124 57l25 -76l-133 -24l91 -99l-64 -48l-66 121l-66 -121l-65 48l91 99l-133 24l25 76l124 -57l-16 137h79z" />
    <glyph glyph-name="plus" unicode="+" horiz-adv-x="566" 
d="M319 353h176v-73h-176v-175h-72v175h-176v73h176v176h72v-176z" />
    <glyph glyph-name="comma" unicode="," horiz-adv-x="226" 
d="M167 0l-52 -144h-58l38 144h-36v117h108v-117z" />
    <glyph glyph-name="hyphen" unicode="-" horiz-adv-x="300" 
d="M270 253h-240v78h240v-78z" />
    <glyph glyph-name="period" unicode="." horiz-adv-x="226" 
d="M167 0h-108v117h108v-117z" />
    <glyph glyph-name="slash" unicode="/" horiz-adv-x="457" 
d="M109 -89h-79l297 834h79z" />
    <glyph glyph-name="zero" unicode="0" horiz-adv-x="562" 
d="M281 688c158 0 244 -124 244 -351s-86 -351 -244 -351s-244 124 -244 351s86 351 244 351zM281 607c-96 0 -148 -94 -148 -270c0 -177 52 -272 148 -272c97 0 149 95 149 272c0 176 -52 270 -149 270z" />
    <glyph glyph-name="one" unicode="1" horiz-adv-x="562" 
d="M347 0h-91v491h-151v70c105 0 151 31 164 113h78v-674z" />
    <glyph glyph-name="two" unicode="2" horiz-adv-x="562" 
d="M281 688c129 0 215 -75 215 -188c0 -118 -77 -173 -185 -236c-135 -78 -162 -122 -163 -185h364v-79h-465c-1 7 -1 15 -1 20c0 128 32 201 199 298c102 60 155 97 155 180c0 65 -46 110 -120 110c-86 0 -126 -49 -131 -132h-94c5 134 92 212 226 212z" />
    <glyph glyph-name="three" unicode="3" horiz-adv-x="562" 
d="M277 688c136 0 221 -73 221 -184c0 -80 -38 -128 -117 -157v-2c87 -29 128 -81 128 -168c0 -114 -94 -191 -231 -191c-149 0 -233 81 -233 217h93c0 -90 49 -138 140 -138c82 0 137 47 137 115c0 79 -56 122 -160 122h-27v77h27c93 0 150 46 150 117
c0 68 -52 113 -132 113c-82 0 -129 -44 -129 -134h-93c0 134 87 213 226 213z" />
    <glyph glyph-name="four" unicode="4" horiz-adv-x="562" 
d="M538 174h-110v-174h-91v174h-318v83l286 417h123v-424h110v-76zM107 250h231v92c0 83 1 167 3 251h-2c-51 -79 -102 -155 -155 -232z" />
    <glyph glyph-name="five" unicode="5" horiz-adv-x="562" 
d="M478 596h-305l-20 -209h2c31 36 82 56 136 56c132 0 218 -87 218 -222c0 -143 -93 -235 -236 -235c-132 0 -219 73 -219 193h94c1 -72 54 -113 125 -113c87 0 141 57 141 152c0 93 -53 147 -136 147c-66 0 -112 -34 -128 -95l-91 6l37 398h382v-78z" />
    <glyph glyph-name="six" unicode="6" horiz-adv-x="562" 
d="M300 688c121 0 197 -71 208 -187h-94c-12 70 -51 107 -117 107c-94 0 -157 -78 -161 -255h2c38 55 94 86 166 86c127 0 213 -89 213 -221c0 -138 -93 -232 -230 -232c-153 0 -238 108 -238 325c0 246 92 377 251 377zM288 364c-81 0 -136 -61 -136 -148
c0 -92 52 -150 135 -150c81 0 135 59 135 150c0 88 -53 148 -134 148z" />
    <glyph glyph-name="seven" unicode="7" horiz-adv-x="562" 
d="M509 674v-81c-102 -148 -192 -351 -240 -593h-101c61 271 159 468 248 594h-373v80h466z" />
    <glyph glyph-name="eight" unicode="8" horiz-adv-x="562" 
d="M281 688c130 0 223 -75 223 -185c0 -73 -46 -126 -118 -153v-2c83 -25 131 -83 131 -166c0 -118 -96 -196 -236 -196s-235 78 -235 196c0 83 48 141 130 166v2c-71 27 -117 80 -117 153c0 110 93 185 222 185zM281 609c-78 0 -131 -43 -131 -109c0 -70 51 -114 131 -114
s131 44 131 114c0 66 -53 109 -131 109zM281 308c-84 0 -142 -49 -142 -120c0 -74 57 -122 142 -122s142 48 142 122c0 71 -58 120 -142 120z" />
    <glyph glyph-name="nine" unicode="9" horiz-adv-x="562" 
d="M255 -14c-121 0 -197 71 -208 187h94c12 -70 51 -107 117 -107c94 0 157 78 161 255h-2c-38 -55 -94 -86 -166 -86c-127 0 -213 89 -213 221c0 138 93 232 230 232c153 0 238 -108 238 -325c0 -246 -92 -377 -251 -377zM267 310c81 0 136 61 136 148
c0 92 -52 150 -135 150c-81 0 -135 -59 -135 -150c0 -88 53 -148 134 -148z" />
    <glyph glyph-name="colon" unicode=":" horiz-adv-x="226" 
d="M167 391h-108v117h108v-117zM167 0h-108v117h108v-117z" />
    <glyph glyph-name="semicolon" unicode=";" horiz-adv-x="226" 
d="M167 391h-108v117h108v-117zM167 0l-52 -144h-58l38 144h-36v117h108v-117z" />
    <glyph glyph-name="less" unicode="&#x3c;" horiz-adv-x="566" 
d="M495 460l-342 -142v-2l342 -142v-80l-424 178v90l424 178v-80z" />
    <glyph glyph-name="equal" unicode="=" horiz-adv-x="566" 
d="M495 362h-424v74h424v-74zM495 197h-424v74h424v-74z" />
    <glyph glyph-name="greater" unicode="&#x3e;" horiz-adv-x="566" 
d="M495 362v-90l-424 -178v80l342 142v2l-342 142v80z" />
    <glyph glyph-name="question" unicode="?" horiz-adv-x="516" 
d="M260 726c131 0 217 -73 217 -181c0 -70 -18 -107 -106 -181c-77 -63 -91 -92 -91 -199h-78v30c0 104 19 142 101 214c70 61 80 86 80 134c0 63 -47 103 -123 103c-83 0 -130 -43 -135 -129h-92c7 137 89 209 227 209zM293 0h-104v106h104v-106z" />
    <glyph glyph-name="at" unicode="@" horiz-adv-x="868" 
d="M444 693c228 0 375 -145 375 -366c0 -172 -89 -252 -189 -252c-62 0 -100 30 -111 90h-2c-29 -60 -75 -90 -137 -90c-91 0 -146 68 -148 194c2 148 80 249 189 249c62 0 98 -31 116 -79h2c3 19 8 47 13 69h76c-24 -112 -42 -238 -42 -293c0 -53 19 -74 56 -74
c58 0 111 58 111 186c0 183 -121 303 -309 303c-212 0 -329 -157 -329 -354c0 -200 123 -319 314 -319c87 0 161 20 220 56l30 -56c-66 -40 -151 -63 -250 -63c-231 0 -381 143 -381 382c0 229 147 417 396 417zM433 448c-68 0 -119 -68 -119 -178c0 -81 33 -124 87 -124
c60 0 116 59 116 192c0 69 -30 110 -84 110z" />
    <glyph glyph-name="A" unicode="A" horiz-adv-x="675" 
d="M495 212h-314l-78 -212h-98l270 712h125l271 -712h-99zM465 293l-23 65c-36 99 -69 191 -103 290h-2c-34 -99 -67 -191 -103 -290l-24 -65h255z" />
    <glyph glyph-name="B" unicode="B" horiz-adv-x="627" 
d="M95 712h232c164 0 240 -73 240 -181c0 -80 -41 -138 -118 -166v-2c85 -20 134 -80 134 -167c0 -119 -87 -196 -237 -196h-251v712zM187 634v-233h133c112 0 156 45 156 117c0 75 -45 116 -152 116h-137zM187 324v-246h146c105 0 155 43 155 123c0 77 -49 123 -168 123
h-133z" />
    <glyph glyph-name="C" unicode="C" horiz-adv-x="689" 
d="M355 726c171 0 275 -108 283 -255h-95c-9 105 -82 171 -188 171c-134 0 -216 -108 -216 -286s81 -286 213 -286c106 0 180 67 194 175h96c-15 -159 -122 -259 -290 -259c-191 0 -309 140 -309 370c0 229 119 370 312 370z" />
    <glyph glyph-name="D" unicode="D" horiz-adv-x="723" 
d="M95 712h217c236 0 369 -128 369 -356s-133 -356 -369 -356h-217v712zM187 630v-548h124c178 0 273 96 273 274s-95 274 -273 274h-124z" />
    <glyph glyph-name="E" unicode="E" horiz-adv-x="618" 
d="M554 630h-367v-225h346v-81h-346v-242h378v-82h-470v712h459v-82z" />
    <glyph glyph-name="F" unicode="F" horiz-adv-x="573" 
d="M541 630h-354v-243h332v-82h-332v-305h-92v712h446v-82z" />
    <glyph glyph-name="G" unicode="G" horiz-adv-x="731" 
d="M365 726c163 0 270 -89 283 -228h-98c-16 91 -82 144 -185 144c-140 0 -226 -109 -226 -288c0 -180 83 -288 219 -288c116 0 201 66 202 233h-196v79h284v-378h-82v98h-2c-38 -68 -123 -111 -224 -111c-182 0 -297 139 -297 367c0 231 123 372 322 372z" />
    <glyph glyph-name="H" unicode="H" horiz-adv-x="737" 
d="M643 0h-93v329h-363v-329h-92v712h92v-302h363v302h93v-712z" />
    <glyph glyph-name="I" unicode="I" horiz-adv-x="282" 
d="M187 0h-92v712h92v-712z" />
    <glyph glyph-name="J" unicode="J" horiz-adv-x="356" 
d="M266 712v-508c0 -141 -68 -209 -201 -209c-18 0 -37 2 -50 6v82c16 -3 31 -5 43 -5c76 0 116 36 116 138v496h92z" />
    <glyph glyph-name="K" unicode="K" horiz-adv-x="625" 
d="M281 373l340 -373h-123l-309 350h-2v-350h-92v712h92v-321h2l287 321h116z" />
    <glyph glyph-name="L" unicode="L" horiz-adv-x="561" 
d="M187 82h364v-82h-456v712h92v-630z" />
    <glyph glyph-name="M" unicode="M" horiz-adv-x="934" 
d="M839 0h-90v362c0 90 1 181 2 272h-2c-31 -91 -64 -181 -97 -272l-132 -362h-106l-132 362c-33 91 -66 181 -97 272h-2c1 -91 2 -182 2 -272v-362h-90v712h148l129 -351c32 -90 64 -183 94 -273h2c30 90 62 183 94 273l128 351h149v-712z" />
    <glyph glyph-name="N" unicode="N" horiz-adv-x="755" 
d="M661 0h-136l-169 307c-59 106 -117 213 -172 319h-2c2 -114 3 -227 3 -341v-285h-90v712h135l170 -307c58 -106 116 -213 172 -319h2c-2 114 -3 227 -3 341v285h90v-712z" />
    <glyph glyph-name="O" unicode="O" horiz-adv-x="732" 
d="M366 726c198 0 323 -143 323 -370s-125 -370 -323 -370s-323 143 -323 370s125 370 323 370zM366 642c-140 0 -227 -111 -227 -286s87 -286 227 -286c139 0 227 111 227 286s-88 286 -227 286z" />
    <glyph glyph-name="P" unicode="P" horiz-adv-x="616" 
d="M95 712h244c164 0 249 -85 249 -215s-85 -215 -249 -215h-152v-282h-92v712zM187 632v-270h145c108 0 161 51 161 135s-53 135 -161 135h-145z" />
    <glyph glyph-name="Q" unicode="Q" horiz-adv-x="731" 
d="M688 356c0 -114 -31 -207 -87 -271l79 -87l-56 -53l-81 89c-49 -31 -107 -48 -175 -48c-200 0 -325 143 -325 370s125 370 325 370c197 0 320 -143 320 -370zM369 67c44 0 82 11 114 32l-94 103l57 52l93 -102c35 50 55 119 55 203c0 175 -87 287 -225 287
c-142 0 -230 -112 -230 -287c0 -176 88 -288 230 -288z" />
    <glyph glyph-name="R" unicode="R" horiz-adv-x="640" 
d="M95 712h226c172 0 250 -72 250 -193c0 -91 -54 -159 -136 -178v-2c52 -16 75 -46 107 -134l73 -205h-100l-65 188c-29 85 -62 112 -138 112h-125v-300h-92v712zM187 633v-255h133c111 0 157 57 157 134c0 83 -59 121 -163 121h-127z" />
    <glyph glyph-name="S" unicode="S" horiz-adv-x="609" 
d="M288 726c170 0 255 -80 255 -234h-93c0 105 -58 155 -163 155c-88 0 -141 -43 -141 -111c0 -76 55 -98 172 -127c135 -33 242 -67 242 -213c0 -128 -100 -210 -255 -210c-166 0 -266 86 -266 250h95c0 -117 65 -171 172 -171c102 0 159 47 159 126s-59 99 -174 128
c-137 34 -239 68 -239 211c0 115 91 196 236 196z" />
    <glyph glyph-name="T" unicode="T" horiz-adv-x="599" 
d="M589 630h-243v-630h-93v630h-243v82h579v-82z" />
    <glyph glyph-name="U" unicode="U" horiz-adv-x="705" 
d="M617 712v-445c0 -184 -94 -281 -264 -281c-171 0 -264 97 -264 281v445h92v-443c0 -133 64 -199 172 -199s171 66 171 199v443h93z" />
    <glyph glyph-name="V" unicode="V" horiz-adv-x="624" 
d="M372 0h-120l-245 712h96l109 -317c35 -101 67 -203 99 -305h2c32 102 65 204 100 305l108 317h97z" />
    <glyph glyph-name="W" unicode="W" horiz-adv-x="916" 
d="M740 0h-132l-75 311c-26 106 -51 213 -74 319h-2c-23 -106 -48 -213 -74 -319l-75 -311h-132l-166 712h92l67 -288c26 -112 50 -224 74 -335h2c25 111 51 224 79 336l70 287h128l70 -287c28 -112 54 -225 79 -336h2c23 111 48 223 74 335l67 288h92z" />
    <glyph glyph-name="X" unicode="X" horiz-adv-x="621" 
d="M367 365l247 -365h-110l-192 293h-2l-192 -293h-111l247 365l-233 347h108l181 -277h2l180 277h108z" />
    <glyph glyph-name="Y" unicode="Y" horiz-adv-x="614" 
d="M353 295v-295h-92v295l-257 417h107l87 -147c37 -62 73 -125 108 -188h2c35 63 71 126 108 188l88 147h106z" />
    <glyph glyph-name="Z" unicode="Z" horiz-adv-x="566" 
d="M529 624l-403 -541v-2h422v-81h-530v88l403 541v2h-392v81h500v-88z" />
    <glyph glyph-name="bracketleft" unicode="[" horiz-adv-x="297" 
d="M279 682h-118v-771h118v-59h-203v889h203v-59z" />
    <glyph glyph-name="backslash" unicode="\" horiz-adv-x="457" 
d="M130 745l297 -834h-79l-297 834h79z" />
    <glyph glyph-name="bracketright" unicode="]" horiz-adv-x="297" 
d="M221 741v-889h-203v59h118v771h-118v59h203z" />
    <glyph glyph-name="asciicircum" unicode="^" horiz-adv-x="449" 
d="M438 371h-82l-130 270h-2l-130 -270h-83l166 341h95z" />
    <glyph glyph-name="underscore" unicode="_" horiz-adv-x="500" 
d="M500 -101h-500v51h500v-51z" />
    <glyph glyph-name="grave" unicode="`" horiz-adv-x="299" 
d="M163 712l86 -143h-76l-123 143h113z" />
    <glyph glyph-name="a" unicode="a" horiz-adv-x="531" 
d="M259 522c124 0 200 -63 200 -197v-195c0 -56 5 -99 12 -130h-80c-5 23 -7 51 -7 74h-2c-35 -54 -94 -85 -176 -85c-106 0 -172 63 -172 149c0 84 47 137 193 160c45 7 107 14 147 17v20c0 84 -47 119 -115 119c-74 0 -113 -41 -116 -101h-88c5 96 75 169 204 169z
M374 217v31c-39 -3 -94 -9 -133 -16c-87 -13 -117 -38 -117 -88c0 -52 38 -87 104 -87c41 0 80 14 105 40c31 32 41 60 41 120z" />
    <glyph glyph-name="b" unicode="b" 
d="M166 438h2c28 51 87 83 155 83c129 0 212 -104 212 -266s-83 -267 -213 -267c-68 0 -128 33 -155 86h-2v-74h-87v712h88v-274zM300 450c-84 0 -138 -75 -138 -195c0 -121 54 -196 138 -196c87 0 143 77 143 196s-56 195 -143 195z" />
    <glyph glyph-name="c" unicode="c" horiz-adv-x="534" 
d="M280 522c122 0 207 -80 217 -194h-92c-6 72 -56 122 -126 122c-90 0 -145 -75 -145 -196c0 -122 55 -196 145 -196c70 0 120 56 126 129h92c-10 -116 -93 -201 -217 -201c-147 0 -239 103 -239 268s92 268 239 268z" />
    <glyph glyph-name="d" unicode="d" 
d="M498 0h-86v74h-2c-28 -53 -87 -86 -156 -86c-130 0 -213 105 -213 267s83 266 212 266c68 0 127 -32 155 -83h2v274h88v-712zM276 450c-87 0 -143 -76 -143 -195s56 -196 143 -196c84 0 139 75 139 196c0 120 -55 195 -139 195z" />
    <glyph glyph-name="e" unicode="e" horiz-adv-x="550" 
d="M280 54c74 0 122 41 134 98h90c-17 -89 -94 -166 -224 -166c-150 0 -239 109 -239 275c0 150 88 261 236 261c115 0 196 -68 222 -177c7 -29 10 -65 10 -109h-380c4 -125 68 -182 151 -182zM277 454c-81 0 -138 -54 -147 -151h292c-9 99 -67 151 -145 151z" />
    <glyph glyph-name="f" unicode="f" horiz-adv-x="305" 
d="M263 647c-49 0 -74 -23 -74 -86v-53h101v-70h-101v-438h-87v438h-89v70h89v63c0 98 49 146 139 146c18 0 39 -2 51 -5v-68c-6 2 -18 3 -29 3z" />
    <glyph glyph-name="g" unicode="g" horiz-adv-x="573" 
d="M256 521c65 0 117 -29 152 -87h2v74h85v-477c0 -149 -80 -224 -222 -224c-130 0 -207 61 -210 161h88c3 -59 49 -93 123 -93c90 0 135 47 135 160v55h-2c-36 -56 -87 -85 -151 -85c-131 0 -215 102 -215 258c0 157 84 258 215 258zM270 448c-83 0 -137 -73 -137 -185
c0 -111 54 -184 137 -184c88 0 142 71 142 184c0 114 -54 185 -142 185z" />
    <glyph glyph-name="h" unicode="h" 
d="M166 444h2c35 51 92 75 151 75c116 0 184 -70 184 -209v-310h-88v303c0 106 -44 144 -117 144c-72 0 -132 -53 -132 -156v-291h-88v712h88v-268z" />
    <glyph glyph-name="i" unicode="i" horiz-adv-x="244" 
d="M166 613h-88v99h88v-99zM166 0h-88v508h88v-508z" />
    <glyph glyph-name="j" unicode="j" horiz-adv-x="249" 
d="M171 613h-88v99h88v-99zM171 508v-537c0 -116 -59 -160 -146 -160c-17 0 -32 1 -47 5v70c10 -2 20 -3 29 -3c49 0 76 23 76 96v529h88z" />
    <glyph glyph-name="k" unicode="k" horiz-adv-x="500" 
d="M509 0h-116l-225 254h-2v-254h-88v712h88v-415h2l205 211h109l-228 -230z" />
    <glyph glyph-name="l" unicode="l" horiz-adv-x="244" 
d="M166 0h-88v712h88v-712z" />
    <glyph glyph-name="m" unicode="m" horiz-adv-x="863" 
d="M619 519c108 0 171 -68 171 -205v-314h-88v307c0 102 -39 140 -104 140c-74 0 -120 -62 -120 -159v-288h-88v320c0 80 -38 127 -103 127c-75 0 -121 -63 -121 -165v-282h-88v508h85v-63h2c36 49 83 74 142 74c70 0 124 -33 151 -96c34 61 86 96 161 96z" />
    <glyph glyph-name="n" unicode="n" 
d="M319 519c116 0 184 -70 184 -209v-310h-88v303c0 106 -44 144 -117 144c-72 0 -132 -54 -132 -156v-291h-88v508h85v-67h2c31 47 86 78 154 78z" />
    <glyph glyph-name="o" unicode="o" horiz-adv-x="565" 
d="M282 522c149 0 242 -102 242 -268s-93 -268 -242 -268s-241 102 -241 268s92 268 241 268zM282 450c-92 0 -149 -75 -149 -196s57 -196 149 -196c93 0 150 75 150 196s-57 196 -150 196z" />
    <glyph glyph-name="p" unicode="p" 
d="M322 521c130 0 213 -104 213 -266s-83 -267 -212 -267c-68 0 -127 33 -155 84h-2v-257h-88v693h87v-73h2c27 53 87 86 155 86zM300 450c-84 0 -138 -75 -138 -195c0 -121 54 -196 138 -196c87 0 143 77 143 196s-56 195 -143 195z" />
    <glyph glyph-name="q" unicode="q" 
d="M254 521c69 0 128 -33 156 -86h2v73h86v-693h-88v257h-2c-28 -51 -87 -84 -155 -84c-129 0 -212 105 -212 267s83 266 213 266zM276 450c-87 0 -143 -76 -143 -195s56 -196 143 -196c84 0 139 75 139 196c0 120 -55 195 -139 195z" />
    <glyph glyph-name="r" unicode="r" horiz-adv-x="362" 
d="M314 513c11 0 26 -1 37 -4v-79c-11 1 -24 3 -35 3c-96 0 -150 -62 -150 -174v-259h-88v508h84v-78h2c34 56 85 83 150 83z" />
    <glyph glyph-name="s" unicode="s" horiz-adv-x="494" 
d="M239 522c124 0 198 -61 198 -173h-86c0 68 -42 105 -113 105c-61 0 -99 -28 -99 -72c0 -53 37 -62 122 -82c93 -23 192 -44 192 -162c0 -91 -78 -152 -201 -152c-133 0 -212 64 -213 183h89c0 -73 46 -113 125 -113c66 0 110 30 110 76c0 59 -42 70 -140 94
c-85 21 -172 38 -172 149c0 87 77 147 188 147z" />
    <glyph glyph-name="t" unicode="t" horiz-adv-x="320" 
d="M257 69c13 0 27 2 36 5v-72c-15 -4 -38 -6 -56 -6c-97 0 -138 41 -138 146v296h-88v70h88v123h88v-123h101v-70h-101v-287c0 -58 19 -82 70 -82z" />
    <glyph glyph-name="u" unicode="u" 
d="M256 -11c-116 0 -183 70 -183 209v310h88v-303c0 -106 44 -144 117 -144c71 0 132 54 132 156v291h88v-508h-85v67h-2c-31 -47 -87 -78 -155 -78z" />
    <glyph glyph-name="v" unicode="v" horiz-adv-x="470" 
d="M292 0h-114l-184 508h94l72 -213c26 -77 50 -149 74 -226h2c24 77 47 149 73 226l73 213h94z" />
    <glyph glyph-name="w" unicode="w" horiz-adv-x="770" 
d="M628 0h-126l-60 220c-19 74 -38 146 -56 220h-2c-18 -74 -37 -146 -56 -220l-60 -220h-126l-135 508h89l54 -212c19 -75 38 -153 56 -228h2c17 73 36 149 56 223l58 217h126l58 -217c19 -74 38 -150 56 -223h2c18 75 37 153 56 228l54 212h89z" />
    <glyph glyph-name="x" unicode="x" horiz-adv-x="480" 
d="M294 264l189 -264h-106l-136 203h-2l-136 -203h-105l189 264l-173 244h104l121 -182h2l122 182h104z" />
    <glyph glyph-name="y" unicode="y" horiz-adv-x="472" 
d="M478 508l-204 -531c-50 -130 -100 -166 -209 -166c-17 0 -33 1 -46 5v74c12 -4 26 -6 42 -6c67 0 93 24 126 114l-193 510h95l146 -404h2l148 404h93z" />
    <glyph glyph-name="z" unicode="z" horiz-adv-x="469" 
d="M433 432l-299 -358v-2h309v-72h-417v76l299 358v2h-289v72h397v-76z" />
    <glyph glyph-name="braceleft" unicode="{" horiz-adv-x="301" 
d="M277 741v-56c-63 -2 -88 -28 -88 -101v-163c0 -70 -22 -104 -84 -124v-3c62 -19 84 -54 84 -123v-164c0 -73 25 -99 88 -100v-56h-22c-106 0 -148 49 -148 162v155c0 59 -18 83 -67 97v61c49 15 67 39 67 97v156c0 113 42 162 148 162h22z" />
    <glyph glyph-name="bar" unicode="|" horiz-adv-x="273" 
d="M177 -205h-81v937h81v-937z" />
    <glyph glyph-name="braceright" unicode="}" horiz-adv-x="301" 
d="M24 741h22c106 0 148 -49 148 -162v-156c0 -58 18 -82 67 -97v-61c-49 -14 -67 -38 -67 -97v-155c0 -113 -42 -162 -148 -162h-22v56c63 1 88 27 88 100v164c0 69 22 104 84 123v3c-62 20 -84 54 -84 124v163c0 73 -25 99 -88 101v56z" />
    <glyph glyph-name="asciitilde" unicode="~" horiz-adv-x="583" 
d="M173 410c109 0 157 -112 238 -112c52 0 85 40 85 101h62c0 -105 -60 -175 -148 -175c-109 0 -157 112 -238 112c-52 0 -85 -41 -85 -102h-62c0 106 60 176 148 176z" />
    <glyph glyph-name="Aacute" unicode="&#xc1;" horiz-adv-x="675" 
d="M347 760h-76l86 138h113zM495 212h-314l-78 -212h-98l270 712h125l271 -712h-99zM465 293l-23 65c-36 99 -69 191 -103 290h-2c-34 -99 -67 -191 -103 -290l-24 -65h255z" />
    <glyph glyph-name="Abreve" unicode="&#x102;" horiz-adv-x="675" 
d="M338 756c-93 0 -149 52 -156 142h66c6 -51 39 -80 90 -80c50 0 83 29 90 80h65c-7 -90 -63 -142 -155 -142zM495 212h-314l-78 -212h-98l270 712h125l271 -712h-99zM465 293l-23 65c-36 99 -69 191 -103 290h-2c-34 -99 -67 -191 -103 -290l-24 -65h255z" />
    <glyph glyph-name="Acircumflex" unicode="&#xc2;" horiz-adv-x="675" 
d="M264 760h-89l114 138h97l114 -138h-89l-74 89zM495 212h-314l-78 -212h-98l270 712h125l271 -712h-99zM465 293l-23 65c-36 99 -69 191 -103 290h-2c-34 -99 -67 -191 -103 -290l-24 -65h255z" />
    <glyph glyph-name="Adieresis" unicode="&#xc4;" horiz-adv-x="675" 
d="M281 775h-82v99h82v-99zM476 775h-82v99h82v-99zM495 212h-314l-78 -212h-98l270 712h125l271 -712h-99zM465 293l-23 65c-36 99 -69 191 -103 290h-2c-34 -99 -67 -191 -103 -290l-24 -65h255z" />
    <glyph glyph-name="Agrave" unicode="&#xc0;" horiz-adv-x="675" 
d="M328 760l-123 138h113l86 -138h-76zM495 212h-314l-78 -212h-98l270 712h125l271 -712h-99zM465 293l-23 65c-36 99 -69 191 -103 290h-2c-34 -99 -67 -191 -103 -290l-24 -65h255z" />
    <glyph glyph-name="Amacron" unicode="&#x100;" horiz-adv-x="675" 
d="M479 788h-284v65h284v-65zM495 212h-314l-78 -212h-98l270 712h125l271 -712h-99zM465 293l-23 65c-36 99 -69 191 -103 290h-2c-34 -99 -67 -191 -103 -290l-24 -65h255z" />
    <glyph glyph-name="Aogonek" unicode="&#x104;" horiz-adv-x="675" 
d="M635 -138c13 0 27 2 39 7v-53c-15 -6 -35 -10 -59 -10c-68 0 -99 31 -99 80c0 44 25 76 78 114h-22l-77 212h-314l-78 -212h-98l270 712h125l271 -712c-58 -43 -76 -71 -76 -102c0 -24 14 -36 40 -36zM465 293l-23 65c-36 99 -69 191 -103 290h-2
c-34 -99 -67 -191 -103 -290l-24 -65h255z" />
    <glyph glyph-name="Aring" unicode="&#xc5;" horiz-adv-x="675" 
d="M337 752c-55 0 -100 45 -100 100c0 56 45 101 100 101c56 0 101 -45 101 -101c0 -55 -45 -100 -101 -100zM337 910c-31 0 -57 -26 -57 -58s26 -57 57 -57c33 0 58 25 58 57s-25 58 -58 58zM495 212h-314l-78 -212h-98l270 712h125l271 -712h-99zM465 293l-23 65
c-36 99 -69 191 -103 290h-2c-34 -99 -67 -191 -103 -290l-24 -65h255z" />
    <glyph glyph-name="Aringacute" unicode="&#x1fa;" horiz-adv-x="675" 
d="M347 955h-76l86 138h113zM338 733c-56 0 -101 45 -101 100c0 56 45 101 101 101c55 0 100 -45 100 -101c0 -55 -45 -100 -100 -100zM338 891c-32 0 -58 -26 -58 -58s26 -57 58 -57s57 25 57 57s-25 58 -57 58zM495 212h-314l-78 -212h-98l270 712h125l271 -712h-99z
M465 293l-23 65c-36 99 -69 191 -103 290h-2c-34 -99 -67 -191 -103 -290l-24 -65h255z" />
    <glyph glyph-name="Atilde" unicode="&#xc3;" horiz-adv-x="675" 
d="M269 828c-28 0 -43 -17 -46 -51h-58c4 73 42 115 101 115c61 0 97 -51 140 -51c27 0 42 18 46 51h58c-4 -73 -42 -115 -101 -115c-61 0 -97 51 -140 51zM495 212h-314l-78 -212h-98l270 712h125l271 -712h-99zM465 293l-23 65c-36 99 -69 191 -103 290h-2
c-34 -99 -67 -191 -103 -290l-24 -65h255z" />
    <glyph glyph-name="AE" unicode="&#xc6;" horiz-adv-x="937" 
d="M884 82v-82h-371l-34 224h-273l-107 -224h-105l349 712h530v-82h-364l34 -225h310v-81h-298l36 -242h293zM467 305l-49 329h-15l-158 -329h222z" />
    <glyph glyph-name="AEacute" unicode="&#x1fc;" horiz-adv-x="937" 
d="M517 760h-76l86 138h113zM884 82v-82h-371l-34 224h-273l-107 -224h-105l349 712h530v-82h-364l34 -225h310v-81h-298l36 -242h293zM467 305l-49 329h-15l-158 -329h222z" />
    <glyph glyph-name="Cacute" unicode="&#x106;" horiz-adv-x="689" 
d="M364 760h-76l86 138h113zM355 726c171 0 275 -108 283 -255h-95c-9 105 -82 171 -188 171c-134 0 -216 -108 -216 -286s81 -286 213 -286c106 0 180 67 194 175h96c-15 -159 -122 -259 -290 -259c-191 0 -309 140 -309 370c0 229 119 370 312 370z" />
    <glyph glyph-name="Ccaron" unicode="&#x10c;" horiz-adv-x="689" 
d="M403 760h-97l-114 138h89l74 -88l73 88h89zM355 726c171 0 275 -108 283 -255h-95c-9 105 -82 171 -188 171c-134 0 -216 -108 -216 -286s81 -286 213 -286c106 0 180 67 194 175h96c-15 -159 -122 -259 -290 -259c-191 0 -309 140 -309 370c0 229 119 370 312 370z" />
    <glyph glyph-name="Ccedilla" unicode="&#xc7;" horiz-adv-x="689" 
d="M546 245h96c-14 -149 -109 -246 -259 -258l-32 -49c6 1 17 3 26 3c43 0 80 -28 80 -74c0 -47 -36 -87 -110 -87c-39 0 -75 11 -105 27l18 37c26 -15 53 -21 78 -21c36 0 56 15 56 41c0 25 -20 42 -53 42c-12 0 -22 -2 -31 -6l-18 20l44 66c-182 8 -293 147 -293 370
c0 229 119 370 312 370c171 0 275 -108 283 -255h-95c-9 105 -82 171 -188 171c-134 0 -216 -108 -216 -286s81 -286 213 -286c106 0 180 67 194 175z" />
    <glyph glyph-name="Ccircumflex" unicode="&#x108;" horiz-adv-x="689" 
d="M306 898h97l114 -138h-89l-74 89l-73 -89h-89zM355 726c171 0 275 -108 283 -255h-95c-9 105 -82 171 -188 171c-134 0 -216 -108 -216 -286s81 -286 213 -286c106 0 180 67 194 175h96c-15 -159 -122 -259 -290 -259c-191 0 -309 140 -309 370c0 229 119 370 312 370z
" />
    <glyph glyph-name="Cdotaccent" unicode="&#x10a;" horiz-adv-x="689" 
d="M399 769h-88v99h88v-99zM355 726c171 0 275 -108 283 -255h-95c-9 105 -82 171 -188 171c-134 0 -216 -108 -216 -286s81 -286 213 -286c106 0 180 67 194 175h96c-15 -159 -122 -259 -290 -259c-191 0 -309 140 -309 370c0 229 119 370 312 370z" />
    <glyph glyph-name="Eth" unicode="&#xd0;" horiz-adv-x="723" 
d="M95 712h217c236 0 369 -128 369 -356s-133 -356 -369 -356h-217v325h-66v71h66v316zM187 82h124c178 0 273 96 273 274s-95 274 -273 274h-124v-234h202v-71h-202v-243z" />
    <glyph glyph-name="Dcaron" unicode="&#x10e;" horiz-adv-x="723" 
d="M377 760h-97l-114 138h89l74 -88l73 88h89zM95 712h217c236 0 369 -128 369 -356s-133 -356 -369 -356h-217v712zM187 630v-548h124c178 0 273 96 273 274s-95 274 -273 274h-124z" />
    <glyph glyph-name="Dcroat" unicode="&#x110;" horiz-adv-x="723" 
d="M95 712h217c236 0 369 -128 369 -356s-133 -356 -369 -356h-217v325h-66v71h66v316zM187 82h124c178 0 273 96 273 274s-95 274 -273 274h-124v-234h202v-71h-202v-243z" />
    <glyph glyph-name="Eacute" unicode="&#xc9;" horiz-adv-x="618" 
d="M333 760h-76l86 138h113zM554 630h-367v-225h346v-81h-346v-242h378v-82h-470v712h459v-82z" />
    <glyph glyph-name="Ebreve" unicode="&#x114;" horiz-adv-x="618" 
d="M415 898h65c-7 -90 -63 -142 -155 -142c-93 0 -149 52 -156 142h66c6 -51 39 -80 90 -80c50 0 83 29 90 80zM554 630h-367v-225h346v-81h-346v-242h378v-82h-470v712h459v-82z" />
    <glyph glyph-name="Ecaron" unicode="&#x11a;" horiz-adv-x="618" 
d="M373 760h-97l-114 138h89l74 -88l73 88h89zM554 630h-367v-225h346v-81h-346v-242h378v-82h-470v712h459v-82z" />
    <glyph glyph-name="Ecircumflex" unicode="&#xca;" horiz-adv-x="618" 
d="M276 898h97l114 -138h-89l-74 89l-73 -89h-89zM554 630h-367v-225h346v-81h-346v-242h378v-82h-470v712h459v-82z" />
    <glyph glyph-name="Edieresis" unicode="&#xcb;" horiz-adv-x="618" 
d="M268 775h-82v99h82v-99zM463 775h-82v99h82v-99zM554 630h-367v-225h346v-81h-346v-242h378v-82h-470v712h459v-82z" />
    <glyph glyph-name="Edotaccent" unicode="&#x116;" horiz-adv-x="618" 
d="M368 769h-88v99h88v-99zM554 630h-367v-225h346v-81h-346v-242h378v-82h-470v712h459v-82z" />
    <glyph glyph-name="Egrave" unicode="&#xc8;" horiz-adv-x="618" 
d="M305 898l86 -138h-76l-123 138h113zM554 630h-367v-225h346v-81h-346v-242h378v-82h-470v712h459v-82z" />
    <glyph glyph-name="Emacron" unicode="&#x112;" horiz-adv-x="618" 
d="M466 788h-284v65h284v-65zM554 630h-367v-225h346v-81h-346v-242h378v-82h-470v712h459v-82z" />
    <glyph glyph-name="Eogonek" unicode="&#x118;" horiz-adv-x="618" 
d="M529 -138c13 0 27 2 39 7v-53c-15 -6 -35 -10 -59 -10c-68 0 -99 31 -99 80c0 44 25 76 78 114h-393v712h459v-82h-367v-225h346v-81h-346v-242h378v-82c-58 -43 -76 -71 -76 -102c0 -24 14 -36 40 -36z" />
    <glyph glyph-name="Gbreve" unicode="&#x11e;" horiz-adv-x="731" 
d="M450 898h65c-7 -90 -63 -142 -155 -142c-93 0 -149 52 -156 142h66c6 -51 39 -80 90 -80c50 0 83 29 90 80zM365 726c163 0 270 -89 283 -228h-98c-16 91 -82 144 -185 144c-140 0 -226 -109 -226 -288c0 -180 83 -288 219 -288c116 0 201 66 202 233h-196v79h284v-378
h-82v98h-2c-38 -68 -123 -111 -224 -111c-182 0 -297 139 -297 367c0 231 123 372 322 372z" />
    <glyph glyph-name="Gcircumflex" unicode="&#x11c;" horiz-adv-x="731" 
d="M311 898h97l114 -138h-89l-74 89l-73 -89h-89zM365 726c163 0 270 -89 283 -228h-98c-16 91 -82 144 -185 144c-140 0 -226 -109 -226 -288c0 -180 83 -288 219 -288c116 0 201 66 202 233h-196v79h284v-378h-82v98h-2c-38 -68 -123 -111 -224 -111
c-182 0 -297 139 -297 367c0 231 123 372 322 372z" />
    <glyph glyph-name="Gcommaaccent" unicode="&#x122;" horiz-adv-x="731" 
d="M365 726c163 0 270 -89 283 -228h-98c-16 91 -82 144 -185 144c-140 0 -226 -109 -226 -288c0 -180 83 -288 219 -288c116 0 201 66 202 233h-196v79h284v-378h-82v98h-2c-38 -68 -123 -111 -224 -111c-182 0 -297 139 -297 367c0 231 123 372 322 372zM403 -154
l-55 -103h-38l38 103h-34v89h89v-89z" />
    <glyph glyph-name="Gdotaccent" unicode="&#x120;" horiz-adv-x="731" 
d="M403 769h-88v99h88v-99zM365 726c163 0 270 -89 283 -228h-98c-16 91 -82 144 -185 144c-140 0 -226 -109 -226 -288c0 -180 83 -288 219 -288c116 0 201 66 202 233h-196v79h284v-378h-82v98h-2c-38 -68 -123 -111 -224 -111c-182 0 -297 139 -297 367
c0 231 123 372 322 372z" />
    <glyph glyph-name="Hbar" unicode="&#x126;" horiz-adv-x="737" 
d="M701 574h-58v-574h-93v329h-363v-329h-92v574h-59v58h59v80h92v-80h363v80h93v-80h58v-58zM550 574h-363v-164h363v164z" />
    <glyph glyph-name="Hcircumflex" unicode="&#x124;" horiz-adv-x="737" 
d="M320 898h97l114 -138h-89l-74 89l-73 -89h-89zM643 0h-93v329h-363v-329h-92v712h92v-302h363v302h93v-712z" />
    <glyph glyph-name="IJ" unicode="&#x132;" horiz-adv-x="637" 
d="M187 0h-92v712h92v-712zM548 712v-508c0 -141 -68 -209 -201 -209c-18 0 -37 2 -50 6v82c16 -3 31 -5 43 -5c76 0 116 36 116 138v496h92z" />
    <glyph glyph-name="Iacute" unicode="&#xcd;" horiz-adv-x="282" 
d="M150 760h-76l86 138h113zM187 0h-92v712h92v-712z" />
    <glyph glyph-name="Ibreve" unicode="&#x12c;" horiz-adv-x="282" 
d="M231 898h65c-7 -90 -63 -142 -155 -142c-93 0 -149 52 -156 142h66c6 -51 39 -80 90 -80c50 0 83 29 90 80zM187 0h-92v712h92v-712z" />
    <glyph glyph-name="Icircumflex" unicode="&#xce;" horiz-adv-x="282" 
d="M92 898h97l114 -138h-89l-74 89l-73 -89h-89zM187 0h-92v712h92v-712z" />
    <glyph glyph-name="Idieresis" unicode="&#xcf;" horiz-adv-x="282" 
d="M84 775h-82v99h82v-99zM279 775h-82v99h82v-99zM187 0h-92v712h92v-712z" />
    <glyph glyph-name="Idotaccent" unicode="&#x130;" horiz-adv-x="282" 
d="M185 769h-88v99h88v-99zM187 0h-92v712h92v-712z" />
    <glyph glyph-name="Igrave" unicode="&#xcc;" horiz-adv-x="282" 
d="M122 898l86 -138h-76l-123 138h113zM187 0h-92v712h92v-712z" />
    <glyph glyph-name="Imacron" unicode="&#x12a;" horiz-adv-x="282" 
d="M283 788h-284v65h284v-65zM187 0h-92v712h92v-712z" />
    <glyph glyph-name="Iogonek" unicode="&#x12e;" horiz-adv-x="282" 
d="M151 -138c13 0 27 2 39 7v-53c-15 -6 -35 -10 -59 -10c-68 0 -99 31 -99 80c0 44 25 76 78 114h-15v712h92v-712c-58 -43 -76 -71 -76 -102c0 -24 14 -36 40 -36z" />
    <glyph glyph-name="Itilde" unicode="&#x128;" horiz-adv-x="282" 
d="M256 892h58c-4 -73 -42 -115 -101 -115c-61 0 -97 51 -140 51c-28 0 -43 -17 -46 -51h-58c4 73 42 115 101 115c61 0 97 -51 140 -51c27 0 42 18 46 51zM187 0h-92v712h92v-712z" />
    <glyph glyph-name="Jcircumflex" unicode="&#x134;" horiz-adv-x="356" 
d="M171 898h97l114 -138h-89l-74 89l-73 -89h-89zM266 712v-508c0 -141 -68 -209 -201 -209c-18 0 -37 2 -50 6v82c16 -3 31 -5 43 -5c76 0 116 36 116 138v496h92z" />
    <glyph glyph-name="Kcommaaccent" unicode="&#x136;" horiz-adv-x="625" 
d="M281 373l340 -373h-123l-309 350h-2v-350h-92v712h92v-321h2l287 321h116zM372 -154l-55 -103h-38l38 103h-34v89h89v-89z" />
    <glyph glyph-name="Lacute" unicode="&#x139;" horiz-adv-x="561" 
d="M182 760h-76l86 138h113zM187 82h364v-82h-456v712h92v-630z" />
    <glyph glyph-name="Lcaron" unicode="&#x13d;" horiz-adv-x="561" 
d="M187 82h364v-82h-456v712h92v-630zM300 494h-54l29 218h80z" />
    <glyph glyph-name="Lcommaaccent" unicode="&#x13b;" horiz-adv-x="561" 
d="M187 82h364v-82h-456v712h92v-630zM367 -154l-55 -103h-38l38 103h-34v89h89v-89z" />
    <glyph glyph-name="Ldot" unicode="&#x13f;" horiz-adv-x="641" 
d="M187 82h364v-82h-456v712h92v-630zM513 354h-108v117h108v-117z" />
    <glyph glyph-name="Lslash" unicode="&#x141;" horiz-adv-x="561" 
d="M551 82v-82h-456v305l-79 -48v83l79 47v325h92v-278l148 88v-82l-148 -88v-270h364z" />
    <glyph glyph-name="Nacute" unicode="&#x143;" horiz-adv-x="755" 
d="M387 760h-76l86 138h113zM661 0h-136l-169 307c-59 106 -117 213 -172 319h-2c2 -114 3 -227 3 -341v-285h-90v712h135l170 -307c58 -106 116 -213 172 -319h2c-2 114 -3 227 -3 341v285h90v-712z" />
    <glyph glyph-name="Ncaron" unicode="&#x147;" horiz-adv-x="755" 
d="M426 760h-97l-114 138h89l74 -88l73 88h89zM661 0h-136l-169 307c-59 106 -117 213 -172 319h-2c2 -114 3 -227 3 -341v-285h-90v712h135l170 -307c58 -106 116 -213 172 -319h2c-2 114 -3 227 -3 341v285h90v-712z" />
    <glyph glyph-name="Ncommaaccent" unicode="&#x145;" horiz-adv-x="755" 
d="M661 0h-136l-169 307c-59 106 -117 213 -172 319h-2c2 -114 3 -227 3 -341v-285h-90v712h135l170 -307c58 -106 116 -213 172 -319h2c-2 114 -3 227 -3 341v285h90v-712zM422 -154l-55 -103h-38l38 103h-34v89h89v-89z" />
    <glyph glyph-name="Eng" unicode="&#x14a;" horiz-adv-x="744" 
d="M650 712v-748c0 -112 -61 -154 -148 -154c-17 0 -32 1 -47 5v70c10 -2 20 -3 30 -3c48 0 75 21 75 87v31l-203 328c-59 96 -117 191 -174 287h-2c3 -105 4 -210 4 -315v-300h-90v712h126l166 -271c59 -95 117 -191 174 -287h2c-3 105 -4 211 -4 316v242h91z" />
    <glyph glyph-name="Ntilde" unicode="&#xd1;" horiz-adv-x="755" 
d="M493 892h58c-4 -73 -42 -115 -101 -115c-61 0 -97 51 -140 51c-28 0 -43 -17 -46 -51h-58c4 73 42 115 101 115c61 0 97 -51 140 -51c27 0 42 18 46 51zM661 0h-136l-169 307c-59 106 -117 213 -172 319h-2c2 -114 3 -227 3 -341v-285h-90v712h135l170 -307
c58 -106 116 -213 172 -319h2c-2 114 -3 227 -3 341v285h90v-712z" />
    <glyph glyph-name="Oacute" unicode="&#xd3;" horiz-adv-x="732" 
d="M375 760h-76l86 138h113zM366 726c198 0 323 -143 323 -370s-125 -370 -323 -370s-323 143 -323 370s125 370 323 370zM366 642c-140 0 -227 -111 -227 -286s87 -286 227 -286c139 0 227 111 227 286s-88 286 -227 286z" />
    <glyph glyph-name="Obreve" unicode="&#x14e;" horiz-adv-x="732" 
d="M456 898h65c-7 -90 -63 -142 -155 -142c-93 0 -149 52 -156 142h66c6 -51 39 -80 90 -80c50 0 83 29 90 80zM366 726c198 0 323 -143 323 -370s-125 -370 -323 -370s-323 143 -323 370s125 370 323 370zM366 642c-140 0 -227 -111 -227 -286s87 -286 227 -286
c139 0 227 111 227 286s-88 286 -227 286z" />
    <glyph glyph-name="Ocircumflex" unicode="&#xd4;" horiz-adv-x="732" 
d="M317 898h97l114 -138h-89l-74 89l-73 -89h-89zM366 726c198 0 323 -143 323 -370s-125 -370 -323 -370s-323 143 -323 370s125 370 323 370zM366 642c-140 0 -227 -111 -227 -286s87 -286 227 -286c139 0 227 111 227 286s-88 286 -227 286z" />
    <glyph glyph-name="Odieresis" unicode="&#xd6;" horiz-adv-x="732" 
d="M309 775h-82v99h82v-99zM504 775h-82v99h82v-99zM366 726c198 0 323 -143 323 -370s-125 -370 -323 -370s-323 143 -323 370s125 370 323 370zM366 642c-140 0 -227 -111 -227 -286s87 -286 227 -286c139 0 227 111 227 286s-88 286 -227 286z" />
    <glyph glyph-name="Ograve" unicode="&#xd2;" horiz-adv-x="732" 
d="M346 898l86 -138h-76l-123 138h113zM366 726c198 0 323 -143 323 -370s-125 -370 -323 -370s-323 143 -323 370s125 370 323 370zM366 642c-140 0 -227 -111 -227 -286s87 -286 227 -286c139 0 227 111 227 286s-88 286 -227 286z" />
    <glyph glyph-name="Ohungarumlaut" unicode="&#x150;" horiz-adv-x="732" 
d="M294 756h-74l106 142h104zM454 756h-74l106 142h104zM366 726c198 0 323 -143 323 -370s-125 -370 -323 -370s-323 143 -323 370s125 370 323 370zM366 642c-140 0 -227 -111 -227 -286s87 -286 227 -286c139 0 227 111 227 286s-88 286 -227 286z" />
    <glyph glyph-name="Omacron" unicode="&#x14c;" horiz-adv-x="732" 
d="M508 788h-284v65h284v-65zM366 726c198 0 323 -143 323 -370s-125 -370 -323 -370s-323 143 -323 370s125 370 323 370zM366 642c-140 0 -227 -111 -227 -286s87 -286 227 -286c139 0 227 111 227 286s-88 286 -227 286z" />
    <glyph glyph-name="Oslash" unicode="&#xd8;" horiz-adv-x="732" 
d="M670 706l-64 -85c53 -64 83 -154 83 -265c0 -227 -125 -370 -323 -370c-76 0 -142 21 -193 60l-60 -79l-51 39l64 85c-53 64 -83 154 -83 265c0 227 125 370 323 370c77 0 142 -21 194 -61l60 80zM137 356c0 -76 16 -141 46 -189l324 428c-37 32 -85 50 -141 50
c-141 0 -229 -112 -229 -289zM366 67c141 0 229 112 229 289c0 76 -16 141 -46 189l-323 -428c37 -32 84 -50 140 -50z" />
    <glyph glyph-name="Oslashacute" unicode="&#x1fe;" horiz-adv-x="732" 
d="M375 760h-76l86 138h113zM670 706l-64 -85c53 -64 83 -154 83 -265c0 -227 -125 -370 -323 -370c-76 0 -142 21 -193 60l-60 -79l-51 39l64 85c-53 64 -83 154 -83 265c0 227 125 370 323 370c77 0 142 -21 194 -61l60 80zM137 356c0 -76 16 -141 46 -189l324 428
c-37 32 -85 50 -141 50c-141 0 -229 -112 -229 -289zM366 67c141 0 229 112 229 289c0 76 -16 141 -46 189l-323 -428c37 -32 84 -50 140 -50z" />
    <glyph glyph-name="Otilde" unicode="&#xd5;" horiz-adv-x="732" 
d="M481 892h58c-4 -73 -42 -115 -101 -115c-61 0 -97 51 -140 51c-28 0 -43 -17 -46 -51h-58c4 73 42 115 101 115c61 0 97 -51 140 -51c27 0 42 18 46 51zM366 726c198 0 323 -143 323 -370s-125 -370 -323 -370s-323 143 -323 370s125 370 323 370zM366 642
c-140 0 -227 -111 -227 -286s87 -286 227 -286c139 0 227 111 227 286s-88 286 -227 286z" />
    <glyph glyph-name="OE" unicode="&#x152;" horiz-adv-x="999" 
d="M935 630h-367v-225h347v-81h-347v-242h378v-82h-537c-234 0 -366 128 -366 356s132 356 366 356h526v-82zM476 630h-67c-175 0 -270 -96 -270 -274s95 -274 270 -274h67v548z" />
    <glyph glyph-name="Thorn" unicode="&#xde;" horiz-adv-x="616" 
d="M187 582h152c164 0 249 -85 249 -214c0 -130 -85 -215 -249 -215h-152v-153h-92v712h92v-130zM187 502v-269h145c108 0 161 51 161 135c0 83 -53 134 -161 134h-145z" />
    <glyph glyph-name="Racute" unicode="&#x154;" horiz-adv-x="640" 
d="M325 760h-76l86 138h113zM95 712h226c172 0 250 -72 250 -193c0 -91 -54 -159 -136 -178v-2c52 -16 75 -46 107 -134l73 -205h-100l-65 188c-29 85 -62 112 -138 112h-125v-300h-92v712zM187 633v-255h133c111 0 157 57 157 134c0 83 -59 121 -163 121h-127z" />
    <glyph glyph-name="Rcaron" unicode="&#x158;" horiz-adv-x="640" 
d="M364 760h-97l-114 138h89l74 -88l73 88h89zM95 712h226c172 0 250 -72 250 -193c0 -91 -54 -159 -136 -178v-2c52 -16 75 -46 107 -134l73 -205h-100l-65 188c-29 85 -62 112 -138 112h-125v-300h-92v712zM187 633v-255h133c111 0 157 57 157 134c0 83 -59 121 -163 121
h-127z" />
    <glyph glyph-name="Rcommaaccent" unicode="&#x156;" horiz-adv-x="640" 
d="M95 712h226c172 0 250 -72 250 -193c0 -91 -54 -159 -136 -178v-2c52 -16 75 -46 107 -134l73 -205h-100l-65 188c-29 85 -62 112 -138 112h-125v-300h-92v712zM187 633v-255h133c111 0 157 57 157 134c0 83 -59 121 -163 121h-127zM384 -154l-55 -103h-38l38 103h-34v89
h89v-89z" />
    <glyph glyph-name="Sacute" unicode="&#x15a;" horiz-adv-x="609" 
d="M298 760h-76l86 138h113zM288 726c170 0 255 -80 255 -234h-93c0 105 -58 155 -163 155c-88 0 -141 -43 -141 -111c0 -76 55 -98 172 -127c135 -33 242 -67 242 -213c0 -128 -100 -210 -255 -210c-166 0 -266 86 -266 250h95c0 -117 65 -171 172 -171
c102 0 159 47 159 126s-59 99 -174 128c-137 34 -239 68 -239 211c0 115 91 196 236 196z" />
    <glyph glyph-name="Scaron" unicode="&#x160;" horiz-adv-x="609" 
d="M337 760h-97l-114 138h89l74 -88l73 88h89zM288 726c170 0 255 -80 255 -234h-93c0 105 -58 155 -163 155c-88 0 -141 -43 -141 -111c0 -76 55 -98 172 -127c135 -33 242 -67 242 -213c0 -128 -100 -210 -255 -210c-166 0 -266 86 -266 250h95c0 -117 65 -171 172 -171
c102 0 159 47 159 126s-59 99 -174 128c-137 34 -239 68 -239 211c0 115 91 196 236 196z" />
    <glyph glyph-name="Scedilla" unicode="&#x15e;" horiz-adv-x="609" 
d="M560 196c0 -120 -87 -199 -225 -209l-32 -49c6 1 17 3 26 3c43 0 80 -28 80 -74c0 -47 -36 -87 -110 -87c-39 0 -75 11 -105 27l18 37c26 -15 53 -21 78 -21c36 0 56 15 56 41c0 25 -20 42 -53 42c-12 0 -22 -2 -31 -6l-18 20l44 66c-156 6 -249 92 -249 250h95
c0 -117 65 -171 172 -171c102 0 159 47 159 126s-59 99 -174 128c-137 34 -239 68 -239 211c0 115 91 196 236 196c170 0 255 -80 255 -234h-93c0 105 -58 155 -163 155c-88 0 -141 -43 -141 -111c0 -76 55 -98 172 -127c135 -33 242 -67 242 -213z" />
    <glyph glyph-name="Scircumflex" unicode="&#x15c;" horiz-adv-x="609" 
d="M240 898h97l114 -138h-89l-74 89l-73 -89h-89zM288 726c170 0 255 -80 255 -234h-93c0 105 -58 155 -163 155c-88 0 -141 -43 -141 -111c0 -76 55 -98 172 -127c135 -33 242 -67 242 -213c0 -128 -100 -210 -255 -210c-166 0 -266 86 -266 250h95
c0 -117 65 -171 172 -171c102 0 159 47 159 126s-59 99 -174 128c-137 34 -239 68 -239 211c0 115 91 196 236 196z" />
    <glyph glyph-name="Scommaaccent" unicode="&#x218;" horiz-adv-x="609" 
d="M288 726c170 0 255 -80 255 -234h-93c0 105 -58 155 -163 155c-88 0 -141 -43 -141 -111c0 -76 55 -98 172 -127c135 -33 242 -67 242 -213c0 -128 -100 -210 -255 -210c-166 0 -266 86 -266 250h95c0 -117 65 -171 172 -171c102 0 159 47 159 126s-59 99 -174 128
c-137 34 -239 68 -239 211c0 115 91 196 236 196zM347 -154l-55 -103h-38l38 103h-34v89h89v-89z" />
    <glyph glyph-name="Germandbls" unicode="&#x1e9e;" horiz-adv-x="769" 
d="M666 598l-165 -176c141 -29 222 -101 222 -230c0 -133 -93 -204 -233 -204c-141 0 -218 67 -218 193h91c0 -72 43 -113 127 -113s137 43 137 125c0 105 -81 153 -229 165v68l151 161c-38 36 -95 58 -161 58c-138 0 -211 -74 -211 -221v-424h-92v423
c0 195 110 302 307 302c117 0 214 -51 274 -127z" />
    <glyph glyph-name="Schwa" unicode="&#x18f;" horiz-adv-x="741" 
d="M358 726c212 0 340 -145 340 -370c0 -215 -125 -370 -333 -370c-198 0 -322 143 -322 370c0 14 0 24 1 32h558c-6 171 -110 255 -245 255c-110 0 -180 -60 -197 -145h-101c24 124 125 228 299 228zM365 70c134 0 224 90 236 238h-461c11 -154 102 -238 225 -238z" />
    <glyph glyph-name="Tbar" unicode="&#x166;" horiz-adv-x="599" 
d="M346 630v-221h141v-72h-141v-337h-93v337h-141v72h141v221h-243v82h579v-82h-243z" />
    <glyph glyph-name="Tcaron" unicode="&#x164;" horiz-adv-x="599" 
d="M348 760h-97l-114 138h89l74 -88l73 88h89zM589 630h-243v-630h-93v630h-243v82h579v-82z" />
    <glyph glyph-name="Tcedilla" unicode="&#x162;" horiz-adv-x="599" 
d="M589 630h-243v-630h-93v630h-243v82h579v-82zM344 -154l-55 -103h-38l38 103h-34v89h89v-89z" />
    <glyph glyph-name="Tcommaaccent" unicode="&#x21a;" horiz-adv-x="599" 
d="M589 630h-243v-630h-93v630h-243v82h579v-82zM344 -154l-55 -103h-38l38 103h-34v89h89v-89z" />
    <glyph glyph-name="Uacute" unicode="&#xda;" horiz-adv-x="705" 
d="M362 760h-76l86 138h113zM617 712v-445c0 -184 -94 -281 -264 -281c-171 0 -264 97 -264 281v445h92v-443c0 -133 64 -199 172 -199s171 66 171 199v443h93z" />
    <glyph glyph-name="Ubreve" unicode="&#x16c;" horiz-adv-x="705" 
d="M443 898h65c-7 -90 -63 -142 -155 -142c-93 0 -149 52 -156 142h66c6 -51 39 -80 90 -80c50 0 83 29 90 80zM617 712v-445c0 -184 -94 -281 -264 -281c-171 0 -264 97 -264 281v445h92v-443c0 -133 64 -199 172 -199s171 66 171 199v443h93z" />
    <glyph glyph-name="Ucircumflex" unicode="&#xdb;" horiz-adv-x="705" 
d="M304 898h97l114 -138h-89l-74 89l-73 -89h-89zM617 712v-445c0 -184 -94 -281 -264 -281c-171 0 -264 97 -264 281v445h92v-443c0 -133 64 -199 172 -199s171 66 171 199v443h93z" />
    <glyph glyph-name="Udieresis" unicode="&#xdc;" horiz-adv-x="705" 
d="M296 775h-82v99h82v-99zM491 775h-82v99h82v-99zM617 712v-445c0 -184 -94 -281 -264 -281c-171 0 -264 97 -264 281v445h92v-443c0 -133 64 -199 172 -199s171 66 171 199v443h93z" />
    <glyph glyph-name="Ugrave" unicode="&#xd9;" horiz-adv-x="705" 
d="M333 898l86 -138h-76l-123 138h113zM617 712v-445c0 -184 -94 -281 -264 -281c-171 0 -264 97 -264 281v445h92v-443c0 -133 64 -199 172 -199s171 66 171 199v443h93z" />
    <glyph glyph-name="Uhungarumlaut" unicode="&#x170;" horiz-adv-x="705" 
d="M281 756h-74l106 142h104zM441 756h-74l106 142h104zM617 712v-445c0 -184 -94 -281 -264 -281c-171 0 -264 97 -264 281v445h92v-443c0 -133 64 -199 172 -199s171 66 171 199v443h93z" />
    <glyph glyph-name="Umacron" unicode="&#x16a;" horiz-adv-x="705" 
d="M494 788h-284v65h284v-65zM617 712v-445c0 -184 -94 -281 -264 -281c-171 0 -264 97 -264 281v445h92v-443c0 -133 64 -199 172 -199s171 66 171 199v443h93z" />
    <glyph glyph-name="Uogonek" unicode="&#x172;" horiz-adv-x="705" 
d="M617 712v-445c0 -124 -41 -198 -114 -256c-58 -46 -76 -74 -76 -107c0 -28 14 -42 41 -42c12 0 26 2 38 7v-53c-15 -6 -35 -10 -58 -10c-68 0 -99 32 -99 85c0 39 20 67 60 101v2c-17 -5 -36 -8 -56 -8c-171 0 -264 97 -264 281v445h92v-443c0 -133 64 -199 172 -199
s171 66 171 199v443h93z" />
    <glyph glyph-name="Uring" unicode="&#x16e;" horiz-adv-x="705" 
d="M352 953c56 0 101 -45 101 -101c0 -55 -45 -100 -101 -100c-55 0 -100 45 -100 100c0 56 45 101 100 101zM352 910c-31 0 -57 -26 -57 -58s26 -57 57 -57c33 0 58 25 58 57s-25 58 -58 58zM617 712v-445c0 -184 -94 -281 -264 -281c-171 0 -264 97 -264 281v445h92v-443
c0 -133 64 -199 172 -199s171 66 171 199v443h93z" />
    <glyph glyph-name="Utilde" unicode="&#x168;" horiz-adv-x="705" 
d="M467 892h58c-4 -73 -42 -115 -101 -115c-61 0 -97 51 -140 51c-28 0 -43 -17 -46 -51h-58c4 73 42 115 101 115c61 0 97 -51 140 -51c27 0 42 18 46 51zM617 712v-445c0 -184 -94 -281 -264 -281c-171 0 -264 97 -264 281v445h92v-443c0 -133 64 -199 172 -199
s171 66 171 199v443h93z" />
    <glyph glyph-name="Wacute" unicode="&#x1e82;" horiz-adv-x="916" 
d="M467 760h-76l86 138h113zM740 0h-132l-75 311c-26 106 -51 213 -74 319h-2c-23 -106 -48 -213 -74 -319l-75 -311h-132l-166 712h92l67 -288c26 -112 50 -224 74 -335h2c25 111 51 224 79 336l70 287h128l70 -287c28 -112 54 -225 79 -336h2c23 111 48 223 74 335l67 288
h92z" />
    <glyph glyph-name="Wcircumflex" unicode="&#x174;" horiz-adv-x="916" 
d="M409 898h97l114 -138h-89l-74 89l-73 -89h-89zM740 0h-132l-75 311c-26 106 -51 213 -74 319h-2c-23 -106 -48 -213 -74 -319l-75 -311h-132l-166 712h92l67 -288c26 -112 50 -224 74 -335h2c25 111 51 224 79 336l70 287h128l70 -287c28 -112 54 -225 79 -336h2
c23 111 48 223 74 335l67 288h92z" />
    <glyph glyph-name="Wdieresis" unicode="&#x1e84;" horiz-adv-x="916" 
d="M401 775h-82v99h82v-99zM596 775h-82v99h82v-99zM740 0h-132l-75 311c-26 106 -51 213 -74 319h-2c-23 -106 -48 -213 -74 -319l-75 -311h-132l-166 712h92l67 -288c26 -112 50 -224 74 -335h2c25 111 51 224 79 336l70 287h128l70 -287c28 -112 54 -225 79 -336h2
c23 111 48 223 74 335l67 288h92z" />
    <glyph glyph-name="Wgrave" unicode="&#x1e80;" horiz-adv-x="916" 
d="M438 898l86 -138h-76l-123 138h113zM740 0h-132l-75 311c-26 106 -51 213 -74 319h-2c-23 -106 -48 -213 -74 -319l-75 -311h-132l-166 712h92l67 -288c26 -112 50 -224 74 -335h2c25 111 51 224 79 336l70 287h128l70 -287c28 -112 54 -225 79 -336h2
c23 111 48 223 74 335l67 288h92z" />
    <glyph glyph-name="Yacute" unicode="&#xdd;" horiz-adv-x="614" 
d="M316 760h-76l86 138h113zM353 295v-295h-92v295l-257 417h107l87 -147c37 -62 73 -125 108 -188h2c35 63 71 126 108 188l88 147h106z" />
    <glyph glyph-name="Ycircumflex" unicode="&#x176;" horiz-adv-x="614" 
d="M258 898h97l114 -138h-89l-74 89l-73 -89h-89zM353 295v-295h-92v295l-257 417h107l87 -147c37 -62 73 -125 108 -188h2c35 63 71 126 108 188l88 147h106z" />
    <glyph glyph-name="Ydieresis" unicode="&#x178;" horiz-adv-x="614" 
d="M250 775h-82v99h82v-99zM445 775h-82v99h82v-99zM353 295v-295h-92v295l-257 417h107l87 -147c37 -62 73 -125 108 -188h2c35 63 71 126 108 188l88 147h106z" />
    <glyph glyph-name="Ygrave" unicode="&#x1ef2;" horiz-adv-x="614" 
d="M288 898l86 -138h-76l-123 138h113zM353 295v-295h-92v295l-257 417h107l87 -147c37 -62 73 -125 108 -188h2c35 63 71 126 108 188l88 147h106z" />
    <glyph glyph-name="Zacute" unicode="&#x179;" horiz-adv-x="566" 
d="M288 760h-76l86 138h113zM529 624l-403 -541v-2h422v-81h-530v88l403 541v2h-392v81h500v-88z" />
    <glyph glyph-name="Zcaron" unicode="&#x17d;" horiz-adv-x="566" 
d="M327 760h-97l-114 138h89l74 -88l73 88h89zM529 624l-403 -541v-2h422v-81h-530v88l403 541v2h-392v81h500v-88z" />
    <glyph glyph-name="Zdotaccent" unicode="&#x17b;" horiz-adv-x="566" 
d="M323 769h-88v99h88v-99zM529 624l-403 -541v-2h422v-81h-530v88l403 541v2h-392v81h500v-88z" />
    <glyph glyph-name="schwa" unicode="&#x259;" horiz-adv-x="550" 
d="M267 522c153 0 242 -107 242 -268c0 -155 -88 -268 -237 -268c-142 0 -231 104 -231 268c0 10 1 18 2 25h378c-4 120 -71 175 -154 175c-70 0 -113 -40 -124 -96h-91c17 88 90 164 215 164zM272 54c83 0 141 59 148 162h-291c7 -106 65 -162 143 -162z" />
    <glyph glyph-name="J.acute.loclNLD" horiz-adv-x="356" 
d="M229 773h-76l86 143h113zM266 712v-508c0 -141 -68 -209 -201 -209c-18 0 -37 2 -50 6v82c16 -3 31 -5 43 -5c76 0 116 36 116 138v496h92z" />
    <glyph glyph-name="Ccedilla.ss01" horiz-adv-x="689" 
d="M355 726c171 0 275 -108 283 -255h-95c-9 105 -82 171 -188 171c-134 0 -216 -108 -216 -286s81 -286 213 -286c106 0 180 67 194 175h96c-15 -159 -122 -259 -290 -259c-191 0 -309 140 -309 370c0 229 119 370 312 370zM304 -211h-110l129 162h80z" />
    <glyph glyph-name="Scedilla.ss01" horiz-adv-x="609" 
d="M288 726c170 0 255 -80 255 -234h-93c0 105 -58 155 -163 155c-88 0 -141 -43 -141 -111c0 -76 55 -98 172 -127c135 -33 242 -67 242 -213c0 -128 -100 -210 -255 -210c-166 0 -266 86 -266 250h95c0 -117 65 -171 172 -171c102 0 159 47 159 126s-59 99 -174 128
c-137 34 -239 68 -239 211c0 115 91 196 236 196zM256 -211h-110l129 162h80z" />
    <glyph glyph-name="Tcedilla.ss01" horiz-adv-x="599" 
d="M589 630h-243v-630h-93v630h-243v82h579v-82zM254 -211h-110l129 162h80z" />
    <glyph glyph-name="aacute" unicode="&#xe1;" horiz-adv-x="531" 
d="M262 569h-76l86 143h113zM259 522c124 0 200 -63 200 -197v-195c0 -56 5 -99 12 -130h-80c-5 23 -7 51 -7 74h-2c-35 -54 -94 -85 -176 -85c-106 0 -172 63 -172 149c0 84 47 137 193 160c45 7 107 14 147 17v20c0 84 -47 119 -115 119c-74 0 -113 -41 -116 -101h-88
c5 96 75 169 204 169zM374 217v31c-39 -3 -94 -9 -133 -16c-87 -13 -117 -38 -117 -88c0 -52 38 -87 104 -87c41 0 80 14 105 40c31 32 41 60 41 120z" />
    <glyph glyph-name="abreve" unicode="&#x103;" horiz-adv-x="531" 
d="M343 712h65c-7 -90 -63 -143 -155 -143c-93 0 -149 53 -156 143h66c6 -52 39 -81 90 -81c50 0 83 29 90 81zM259 522c124 0 200 -63 200 -197v-195c0 -56 5 -99 12 -130h-80c-5 23 -7 51 -7 74h-2c-35 -54 -94 -85 -176 -85c-106 0 -172 63 -172 149c0 84 47 137 193 160
c45 7 107 14 147 17v20c0 84 -47 119 -115 119c-74 0 -113 -41 -116 -101h-88c5 96 75 169 204 169zM374 217v31c-39 -3 -94 -9 -133 -16c-87 -13 -117 -38 -117 -88c0 -52 38 -87 104 -87c41 0 80 14 105 40c31 32 41 60 41 120z" />
    <glyph glyph-name="acircumflex" unicode="&#xe2;" horiz-adv-x="531" 
d="M326 569l-73 93l-74 -93h-89l114 143h97l114 -143h-89zM259 522c124 0 200 -63 200 -197v-195c0 -56 5 -99 12 -130h-80c-5 23 -7 51 -7 74h-2c-35 -54 -94 -85 -176 -85c-106 0 -172 63 -172 149c0 84 47 137 193 160c45 7 107 14 147 17v20c0 84 -47 119 -115 119
c-74 0 -113 -41 -116 -101h-88c5 96 75 169 204 169zM374 217v31c-39 -3 -94 -9 -133 -16c-87 -13 -117 -38 -117 -88c0 -52 38 -87 104 -87c41 0 80 14 105 40c31 32 41 60 41 120z" />
    <glyph glyph-name="adieresis" unicode="&#xe4;" horiz-adv-x="531" 
d="M196 613h-82v99h82v-99zM391 613h-82v99h82v-99zM259 522c124 0 200 -63 200 -197v-195c0 -56 5 -99 12 -130h-80c-5 23 -7 51 -7 74h-2c-35 -54 -94 -85 -176 -85c-106 0 -172 63 -172 149c0 84 47 137 193 160c45 7 107 14 147 17v20c0 84 -47 119 -115 119
c-74 0 -113 -41 -116 -101h-88c5 96 75 169 204 169zM374 217v31c-39 -3 -94 -9 -133 -16c-87 -13 -117 -38 -117 -88c0 -52 38 -87 104 -87c41 0 80 14 105 40c31 32 41 60 41 120z" />
    <glyph glyph-name="agrave" unicode="&#xe0;" horiz-adv-x="531" 
d="M233 712l86 -143h-76l-123 143h113zM259 522c124 0 200 -63 200 -197v-195c0 -56 5 -99 12 -130h-80c-5 23 -7 51 -7 74h-2c-35 -54 -94 -85 -176 -85c-106 0 -172 63 -172 149c0 84 47 137 193 160c45 7 107 14 147 17v20c0 84 -47 119 -115 119
c-74 0 -113 -41 -116 -101h-88c5 96 75 169 204 169zM374 217v31c-39 -3 -94 -9 -133 -16c-87 -13 -117 -38 -117 -88c0 -52 38 -87 104 -87c41 0 80 14 105 40c31 32 41 60 41 120z" />
    <glyph glyph-name="amacron" unicode="&#x101;" horiz-adv-x="531" 
d="M395 616h-284v64h284v-64zM259 522c124 0 200 -63 200 -197v-195c0 -56 5 -99 12 -130h-80c-5 23 -7 51 -7 74h-2c-35 -54 -94 -85 -176 -85c-106 0 -172 63 -172 149c0 84 47 137 193 160c45 7 107 14 147 17v20c0 84 -47 119 -115 119c-74 0 -113 -41 -116 -101h-88
c5 96 75 169 204 169zM374 217v31c-39 -3 -94 -9 -133 -16c-87 -13 -117 -38 -117 -88c0 -52 38 -87 104 -87c41 0 80 14 105 40c31 32 41 60 41 120z" />
    <glyph glyph-name="aogonek" unicode="&#x105;" horiz-adv-x="531" 
d="M435 -138c13 0 27 2 39 7v-53c-15 -6 -35 -10 -59 -10c-68 0 -99 31 -99 80c0 44 25 76 78 114h-3c-5 23 -7 51 -7 74h-2c-35 -54 -94 -85 -176 -85c-106 0 -172 63 -172 149c0 84 47 137 193 160c45 7 107 14 147 17v20c0 84 -47 119 -115 119c-74 0 -113 -41 -116 -101
h-88c5 96 75 169 204 169c124 0 200 -63 200 -197v-195c0 -56 5 -99 12 -130c-58 -43 -76 -71 -76 -102c0 -24 14 -36 40 -36zM374 217v31c-39 -3 -94 -9 -133 -16c-87 -13 -117 -38 -117 -88c0 -52 38 -87 104 -87c41 0 80 14 105 40c31 32 41 60 41 120z" />
    <glyph glyph-name="aring" unicode="&#xe5;" horiz-adv-x="531" 
d="M252 766c56 0 101 -45 101 -100c0 -56 -45 -101 -101 -101c-55 0 -100 45 -100 101c0 55 45 100 100 100zM252 724c-31 0 -57 -26 -57 -58c0 -33 26 -58 57 -58c33 0 58 25 58 58c0 32 -25 58 -58 58zM259 522c124 0 200 -63 200 -197v-195c0 -56 5 -99 12 -130h-80
c-5 23 -7 51 -7 74h-2c-35 -54 -94 -85 -176 -85c-106 0 -172 63 -172 149c0 84 47 137 193 160c45 7 107 14 147 17v20c0 84 -47 119 -115 119c-74 0 -113 -41 -116 -101h-88c5 96 75 169 204 169zM374 217v31c-39 -3 -94 -9 -133 -16c-87 -13 -117 -38 -117 -88
c0 -52 38 -87 104 -87c41 0 80 14 105 40c31 32 41 60 41 120z" />
    <glyph glyph-name="aringacute" unicode="&#x1fb;" horiz-adv-x="531" 
d="M262 773h-76l86 142h113zM253 748c55 0 100 -45 100 -101c0 -55 -45 -100 -100 -100c-56 0 -101 45 -101 100c0 56 45 101 101 101zM253 705c-32 0 -58 -26 -58 -58s26 -57 58 -57s58 25 58 57s-26 58 -58 58zM259 522c124 0 200 -63 200 -197v-195c0 -56 5 -99 12 -130
h-80c-5 23 -7 51 -7 74h-2c-35 -54 -94 -85 -176 -85c-106 0 -172 63 -172 149c0 84 47 137 193 160c45 7 107 14 147 17v20c0 84 -47 119 -115 119c-74 0 -113 -41 -116 -101h-88c5 96 75 169 204 169zM374 217v31c-39 -3 -94 -9 -133 -16c-87 -13 -117 -38 -117 -88
c0 -52 38 -87 104 -87c41 0 80 14 105 40c31 32 41 60 41 120z" />
    <glyph glyph-name="atilde" unicode="&#xe3;" horiz-adv-x="531" 
d="M368 706h58c-4 -73 -42 -115 -101 -115c-61 0 -97 51 -140 51c-28 0 -43 -18 -46 -51h-58c4 73 42 115 101 115c61 0 97 -51 140 -51c27 0 42 17 46 51zM259 522c124 0 200 -63 200 -197v-195c0 -56 5 -99 12 -130h-80c-5 23 -7 51 -7 74h-2c-35 -54 -94 -85 -176 -85
c-106 0 -172 63 -172 149c0 84 47 137 193 160c45 7 107 14 147 17v20c0 84 -47 119 -115 119c-74 0 -113 -41 -116 -101h-88c5 96 75 169 204 169zM374 217v31c-39 -3 -94 -9 -133 -16c-87 -13 -117 -38 -117 -88c0 -52 38 -87 104 -87c41 0 80 14 105 40
c31 32 41 60 41 120z" />
    <glyph glyph-name="ae" unicode="&#xe6;" horiz-adv-x="862" 
d="M600 54c70 0 114 41 126 98h90c-16 -89 -90 -166 -216 -166c-85 0 -148 40 -185 108c-37 -69 -109 -108 -200 -108c-111 0 -181 64 -181 153c0 97 59 161 234 161h110v35c0 82 -45 119 -117 119c-73 0 -114 -41 -118 -101h-88c6 96 77 169 206 169c79 0 137 -26 168 -82
c37 51 94 82 168 82c109 0 189 -69 214 -178c7 -30 10 -66 10 -111h-364c5 -123 66 -179 143 -179zM597 454c-77 0 -131 -55 -139 -154h276c-6 101 -62 154 -137 154zM378 233h-100c-116 0 -154 -33 -154 -91c0 -53 39 -88 106 -88c42 0 81 14 106 41c31 32 42 61 42 122v16
z" />
    <glyph glyph-name="aeacute" unicode="&#x1fd;" horiz-adv-x="862" 
d="M438 569h-76l86 143h113zM600 54c70 0 114 41 126 98h90c-16 -89 -90 -166 -216 -166c-85 0 -148 40 -185 108c-37 -69 -109 -108 -200 -108c-111 0 -181 64 -181 153c0 97 59 161 234 161h110v35c0 82 -45 119 -117 119c-73 0 -114 -41 -118 -101h-88
c6 96 77 169 206 169c79 0 137 -26 168 -82c37 51 94 82 168 82c109 0 189 -69 214 -178c7 -30 10 -66 10 -111h-364c5 -123 66 -179 143 -179zM597 454c-77 0 -131 -55 -139 -154h276c-6 101 -62 154 -137 154zM378 233h-100c-116 0 -154 -33 -154 -91
c0 -53 39 -88 106 -88c42 0 81 14 106 41c31 32 42 61 42 122v16z" />
    <glyph glyph-name="cacute" unicode="&#x107;" horiz-adv-x="534" 
d="M289 569h-76l86 143h113zM280 522c122 0 207 -80 217 -194h-92c-6 72 -56 122 -126 122c-90 0 -145 -75 -145 -196c0 -122 55 -196 145 -196c70 0 120 56 126 129h92c-10 -116 -93 -201 -217 -201c-147 0 -239 103 -239 268s92 268 239 268z" />
    <glyph glyph-name="ccaron" unicode="&#x10d;" horiz-adv-x="534" 
d="M328 569h-97l-114 143h89l74 -93l73 93h89zM280 522c122 0 207 -80 217 -194h-92c-6 72 -56 122 -126 122c-90 0 -145 -75 -145 -196c0 -122 55 -196 145 -196c70 0 120 56 126 129h92c-10 -116 -93 -201 -217 -201c-147 0 -239 103 -239 268s92 268 239 268z" />
    <glyph glyph-name="ccedilla" unicode="&#xe7;" horiz-adv-x="534" 
d="M279 58c70 0 120 56 126 129h92c-9 -105 -78 -185 -184 -199l-32 -50c6 1 17 3 26 3c43 0 80 -28 80 -74c0 -47 -36 -87 -110 -87c-39 0 -75 11 -105 27l18 37c26 -15 53 -21 78 -21c36 0 56 15 56 41c0 25 -20 42 -53 42c-12 0 -22 -2 -31 -6l-18 20l44 66
c-139 7 -225 108 -225 268c0 165 92 268 239 268c122 0 207 -80 217 -194h-92c-6 72 -56 122 -126 122c-90 0 -145 -75 -145 -196c0 -122 55 -196 145 -196z" />
    <glyph glyph-name="ccircumflex" unicode="&#x109;" horiz-adv-x="534" 
d="M353 569l-73 93l-74 -93h-89l114 143h97l114 -143h-89zM280 522c122 0 207 -80 217 -194h-92c-6 72 -56 122 -126 122c-90 0 -145 -75 -145 -196c0 -122 55 -196 145 -196c70 0 120 56 126 129h92c-10 -116 -93 -201 -217 -201c-147 0 -239 103 -239 268s92 268 239 268z
" />
    <glyph glyph-name="cdotaccent" unicode="&#x10b;" horiz-adv-x="534" 
d="M323 613h-88v99h88v-99zM280 522c122 0 207 -80 217 -194h-92c-6 72 -56 122 -126 122c-90 0 -145 -75 -145 -196c0 -122 55 -196 145 -196c70 0 120 56 126 129h92c-10 -116 -93 -201 -217 -201c-147 0 -239 103 -239 268s92 268 239 268z" />
    <glyph glyph-name="eth" unicode="&#xf0;" horiz-adv-x="566" 
d="M424 534c67 -88 100 -173 100 -278c0 -167 -92 -270 -241 -270s-242 100 -242 263c0 162 86 262 225 262c41 0 76 -12 104 -35v2c-30 40 -68 80 -110 117l-134 -60l-21 49l109 49c-23 18 -46 35 -70 51l65 42c25 -17 53 -37 80 -59l123 55l22 -49l-100 -45
c35 -31 67 -64 90 -94zM282 58c93 0 150 74 150 195c0 120 -57 194 -150 194c-92 0 -149 -74 -149 -194c0 -121 57 -195 149 -195z" />
    <glyph glyph-name="dcaron" unicode="&#x10f;" 
d="M498 0h-86v74h-2c-28 -53 -87 -86 -156 -86c-130 0 -213 105 -213 267s83 266 212 266c68 0 127 -32 155 -83h2v274h88v-712zM586 536h-54l29 176h80zM276 450c-87 0 -143 -76 -143 -195s56 -196 143 -196c84 0 139 75 139 196c0 120 -55 195 -139 195z" />
    <glyph glyph-name="dcroat" unicode="&#x111;" horiz-adv-x="570" 
d="M563 580h-65v-580h-86v74h-2c-28 -53 -87 -86 -156 -86c-130 0 -213 105 -213 267s83 266 212 266c68 0 127 -32 155 -83h2v142h-131v55h131v77h88v-77h65v-55zM276 59c84 0 139 75 139 196c0 120 -55 195 -139 195c-87 0 -143 -76 -143 -195s56 -196 143 -196z" />
    <glyph glyph-name="eacute" unicode="&#xe9;" horiz-adv-x="550" 
d="M284 569h-76l86 143h113zM280 54c74 0 122 41 134 98h90c-17 -89 -94 -166 -224 -166c-150 0 -239 109 -239 275c0 150 88 261 236 261c115 0 196 -68 222 -177c7 -29 10 -65 10 -109h-380c4 -125 68 -182 151 -182zM277 454c-81 0 -138 -54 -147 -151h292
c-9 99 -67 151 -145 151z" />
    <glyph glyph-name="ebreve" unicode="&#x115;" horiz-adv-x="550" 
d="M275 569c-93 0 -149 53 -156 143h66c6 -52 39 -81 90 -81c50 0 83 29 90 81h65c-7 -90 -63 -143 -155 -143zM280 54c74 0 122 41 134 98h90c-17 -89 -94 -166 -224 -166c-150 0 -239 109 -239 275c0 150 88 261 236 261c115 0 196 -68 222 -177c7 -29 10 -65 10 -109
h-380c4 -125 68 -182 151 -182zM277 454c-81 0 -138 -54 -147 -151h292c-9 99 -67 151 -145 151z" />
    <glyph glyph-name="ecaron" unicode="&#x11b;" horiz-adv-x="550" 
d="M226 569l-114 143h89l74 -93l73 93h89l-114 -143h-97zM280 54c74 0 122 41 134 98h90c-17 -89 -94 -166 -224 -166c-150 0 -239 109 -239 275c0 150 88 261 236 261c115 0 196 -68 222 -177c7 -29 10 -65 10 -109h-380c4 -125 68 -182 151 -182zM277 454
c-81 0 -138 -54 -147 -151h292c-9 99 -67 151 -145 151z" />
    <glyph glyph-name="ecircumflex" unicode="&#xea;" horiz-adv-x="550" 
d="M201 569h-89l114 143h97l114 -143h-89l-73 93zM280 54c74 0 122 41 134 98h90c-17 -89 -94 -166 -224 -166c-150 0 -239 109 -239 275c0 150 88 261 236 261c115 0 196 -68 222 -177c7 -29 10 -65 10 -109h-380c4 -125 68 -182 151 -182zM277 454
c-81 0 -138 -54 -147 -151h292c-9 99 -67 151 -145 151z" />
    <glyph glyph-name="edieresis" unicode="&#xeb;" horiz-adv-x="550" 
d="M218 613h-82v99h82v-99zM413 613h-82v99h82v-99zM280 54c74 0 122 41 134 98h90c-17 -89 -94 -166 -224 -166c-150 0 -239 109 -239 275c0 150 88 261 236 261c115 0 196 -68 222 -177c7 -29 10 -65 10 -109h-380c4 -125 68 -182 151 -182zM277 454
c-81 0 -138 -54 -147 -151h292c-9 99 -67 151 -145 151z" />
    <glyph glyph-name="edotaccent" unicode="&#x117;" horiz-adv-x="550" 
d="M318 613h-88v99h88v-99zM280 54c74 0 122 41 134 98h90c-17 -89 -94 -166 -224 -166c-150 0 -239 109 -239 275c0 150 88 261 236 261c115 0 196 -68 222 -177c7 -29 10 -65 10 -109h-380c4 -125 68 -182 151 -182zM277 454c-81 0 -138 -54 -147 -151h292
c-9 99 -67 151 -145 151z" />
    <glyph glyph-name="egrave" unicode="&#xe8;" horiz-adv-x="550" 
d="M265 569l-123 143h113l86 -143h-76zM280 54c74 0 122 41 134 98h90c-17 -89 -94 -166 -224 -166c-150 0 -239 109 -239 275c0 150 88 261 236 261c115 0 196 -68 222 -177c7 -29 10 -65 10 -109h-380c4 -125 68 -182 151 -182zM277 454c-81 0 -138 -54 -147 -151h292
c-9 99 -67 151 -145 151z" />
    <glyph glyph-name="emacron" unicode="&#x113;" horiz-adv-x="550" 
d="M416 616h-284v64h284v-64zM280 54c74 0 122 41 134 98h90c-17 -89 -94 -166 -224 -166c-150 0 -239 109 -239 275c0 150 88 261 236 261c115 0 196 -68 222 -177c7 -29 10 -65 10 -109h-380c4 -125 68 -182 151 -182zM277 454c-81 0 -138 -54 -147 -151h292
c-9 99 -67 151 -145 151z" />
    <glyph glyph-name="eogonek" unicode="&#x119;" horiz-adv-x="550" 
d="M280 54c74 0 122 41 134 98h90c-9 -49 -33 -88 -77 -128c-60 -54 -80 -85 -80 -122c0 -26 15 -40 41 -40c13 0 27 2 39 7v-53c-15 -6 -35 -10 -59 -10c-68 0 -99 31 -99 80c0 38 18 70 53 102v2c-13 -2 -28 -4 -42 -4c-150 0 -239 109 -239 275c0 150 88 261 236 261
c115 0 196 -68 222 -177c7 -29 10 -65 10 -109h-380c4 -125 68 -182 151 -182zM277 454c-81 0 -138 -54 -147 -151h292c-9 99 -67 151 -145 151z" />
    <glyph glyph-name="gbreve" unicode="&#x11f;" horiz-adv-x="573" 
d="M365 712h65c-7 -90 -63 -143 -155 -143c-93 0 -149 53 -156 143h66c6 -52 39 -81 90 -81c50 0 83 29 90 81zM256 521c65 0 117 -29 152 -87h2v74h85v-477c0 -149 -80 -224 -222 -224c-130 0 -207 61 -210 161h88c3 -59 49 -93 123 -93c90 0 135 47 135 160v55h-2
c-36 -56 -87 -85 -151 -85c-131 0 -215 102 -215 258c0 157 84 258 215 258zM270 448c-83 0 -137 -73 -137 -185c0 -111 54 -184 137 -184c88 0 142 71 142 184c0 114 -54 185 -142 185z" />
    <glyph glyph-name="gcircumflex" unicode="&#x11d;" horiz-adv-x="573" 
d="M348 569l-73 93l-74 -93h-89l114 143h97l114 -143h-89zM256 521c65 0 117 -29 152 -87h2v74h85v-477c0 -149 -80 -224 -222 -224c-130 0 -207 61 -210 161h88c3 -59 49 -93 123 -93c90 0 135 47 135 160v55h-2c-36 -56 -87 -85 -151 -85c-131 0 -215 102 -215 258
c0 157 84 258 215 258zM270 448c-83 0 -137 -73 -137 -185c0 -111 54 -184 137 -184c88 0 142 71 142 184c0 114 -54 185 -142 185z" />
    <glyph glyph-name="gcommaaccent" unicode="&#x123;" horiz-adv-x="573" 
d="M283 672h34v-89h-89v89l55 103h38zM256 521c65 0 117 -29 152 -87h2v74h85v-477c0 -149 -80 -224 -222 -224c-130 0 -207 61 -210 161h88c3 -59 49 -93 123 -93c90 0 135 47 135 160v55h-2c-36 -56 -87 -85 -151 -85c-131 0 -215 102 -215 258c0 157 84 258 215 258z
M270 448c-83 0 -137 -73 -137 -185c0 -111 54 -184 137 -184c88 0 142 71 142 184c0 114 -54 185 -142 185z" />
    <glyph glyph-name="gdotaccent" unicode="&#x121;" horiz-adv-x="573" 
d="M318 613h-88v99h88v-99zM256 521c65 0 117 -29 152 -87h2v74h85v-477c0 -149 -80 -224 -222 -224c-130 0 -207 61 -210 161h88c3 -59 49 -93 123 -93c90 0 135 47 135 160v55h-2c-36 -56 -87 -85 -151 -85c-131 0 -215 102 -215 258c0 157 84 258 215 258zM270 448
c-83 0 -137 -73 -137 -185c0 -111 54 -184 137 -184c88 0 142 71 142 184c0 114 -54 185 -142 185z" />
    <glyph glyph-name="hbar" unicode="&#x127;" 
d="M319 519c116 0 184 -70 184 -209v-310h-88v303c0 106 -44 144 -117 144c-72 0 -132 -53 -132 -156v-291h-88v580h-71v52h71v80h88v-80h125v-52h-125v-136h2c35 51 92 75 151 75z" />
    <glyph glyph-name="hcircumflex" unicode="&#x125;" 
d="M239 898h97l114 -138h-89l-74 89l-73 -89h-89zM166 444h2c35 51 92 75 151 75c116 0 184 -70 184 -209v-310h-88v303c0 106 -44 144 -117 144c-72 0 -132 -53 -132 -156v-291h-88v712h88v-268z" />
    <glyph glyph-name="dotlessi" unicode="&#x131;" horiz-adv-x="244" 
d="M166 0h-88v508h88v-508z" />
    <glyph glyph-name="iacute" unicode="&#xed;" horiz-adv-x="244" 
d="M132 569h-76l86 143h113zM166 0h-88v508h88v-508z" />
    <glyph glyph-name="ibreve" unicode="&#x12d;" horiz-adv-x="244" 
d="M198 712h63c-4 -90 -54 -143 -139 -143s-135 53 -139 143h63c4 -53 31 -82 76 -82s72 29 76 82zM166 0h-88v508h88v-508z" />
    <glyph glyph-name="icircumflex" unicode="&#xee;" horiz-adv-x="244" 
d="M270 570h-85l-63 93l-62 -93h-86l100 142h96zM166 0h-88v508h88v-508z" />
    <glyph glyph-name="idieresis" unicode="&#xef;" horiz-adv-x="244" 
d="M86 613h-82v99h82v-99zM239 613h-81v99h81v-99zM166 0h-88v508h88v-508z" />
    <glyph glyph-name="idotaccent" horiz-adv-x="244" 
d="M166 613h-88v99h88v-99zM166 0h-88v508h88v-508z" />
    <glyph glyph-name="igrave" unicode="&#xec;" horiz-adv-x="244" 
d="M103 712l86 -143h-76l-123 143h113zM166 0h-88v508h88v-508z" />
    <glyph glyph-name="ij" unicode="&#x133;" horiz-adv-x="493" 
d="M166 613h-88v99h88v-99zM415 613h-88v99h88v-99zM166 0h-88v508h88v-508zM415 508v-537c0 -116 -59 -160 -146 -160c-17 0 -32 1 -47 5v70c10 -2 20 -3 29 -3c49 0 76 23 76 96v529h88z" />
    <glyph glyph-name="imacron" unicode="&#x12b;" horiz-adv-x="244" 
d="M251 617h-257v65h257v-65zM166 0h-88v508h88v-508z" />
    <glyph glyph-name="iogonek" unicode="&#x12f;" horiz-adv-x="244" 
d="M166 613h-88v99h88v-99zM130 -138c13 0 27 2 39 7v-53c-15 -6 -35 -10 -59 -10c-68 0 -99 31 -99 80c0 44 25 76 78 114h-11v508h88v-508c-58 -43 -76 -71 -76 -102c0 -24 14 -36 40 -36z" />
    <glyph glyph-name="itilde" unicode="&#x129;" horiz-adv-x="244" 
d="M221 706h52c-3 -73 -37 -115 -93 -115c-54 0 -79 52 -116 52c-25 0 -39 -18 -42 -52h-51c3 73 37 115 93 115c54 0 79 -53 116 -53c26 0 38 18 41 53zM166 0h-88v508h88v-508z" />
    <glyph glyph-name="dotlessj" unicode="&#x237;" horiz-adv-x="249" 
d="M171 508v-537c0 -116 -59 -160 -146 -160c-17 0 -32 1 -47 5v70c10 -2 20 -3 29 -3c49 0 76 23 76 96v529h88z" />
    <glyph glyph-name="jcircumflex" unicode="&#x135;" horiz-adv-x="249" 
d="M275 570h-85l-63 93l-62 -93h-86l100 142h96zM171 508v-537c0 -116 -59 -160 -146 -160c-17 0 -32 1 -47 5v70c10 -2 20 -3 29 -3c49 0 76 23 76 96v529h88z" />
    <glyph glyph-name="kcommaaccent" unicode="&#x137;" horiz-adv-x="500" 
d="M509 0h-116l-225 254h-2v-254h-88v712h88v-415h2l205 211h109l-228 -230zM229 -65h89v-89l-55 -103h-38l38 103h-34v89z" />
    <glyph glyph-name="kgreenlandic" unicode="&#x138;" horiz-adv-x="517" 
d="M509 0h-116l-225 254h-2v-254h-88v508h88v-211h2l205 211h109l-228 -230z" />
    <glyph glyph-name="lacute" unicode="&#x13a;" horiz-adv-x="244" 
d="M151 773h-76l86 143h113zM166 0h-88v712h88v-712z" />
    <glyph glyph-name="lcaron" unicode="&#x13e;" horiz-adv-x="244" 
d="M166 0h-88v712h88v-712zM256 536h-54l29 176h80z" />
    <glyph glyph-name="lcommaaccent" unicode="&#x13c;" horiz-adv-x="244" 
d="M166 0h-88v712h88v-712zM166 -154l-55 -103h-38l38 103h-34v89h89v-89z" />
    <glyph glyph-name="ldot" unicode="&#x140;" horiz-adv-x="399" 
d="M166 0h-88v712h88v-712zM375 297h-108v117h108v-117z" />
    <glyph glyph-name="lslash" unicode="&#x142;" horiz-adv-x="285" 
d="M275 430l-88 -52v-378h-88v335l-89 -52v78l89 53v298h88v-256l88 53v-79z" />
    <glyph glyph-name="nacute" unicode="&#x144;" 
d="M300 569h-76l86 143h113zM319 519c116 0 184 -70 184 -209v-310h-88v303c0 106 -44 144 -117 144c-72 0 -132 -54 -132 -156v-291h-88v508h85v-67h2c31 47 86 78 154 78z" />
    <glyph glyph-name="napostrophe" unicode="&#x149;" horiz-adv-x="694" 
d="M168 604l-48 -134h-53l35 134h-33v108h99v-108zM438 519c116 0 183 -70 183 -209v-310h-88v303c0 106 -44 144 -116 144s-132 -54 -132 -156v-291h-88v508h84v-67h2c31 47 87 78 155 78z" />
    <glyph glyph-name="ncaron" unicode="&#x148;" 
d="M339 569h-97l-114 143h89l74 -93l73 93h89zM319 519c116 0 184 -70 184 -209v-310h-88v303c0 106 -44 144 -117 144c-72 0 -132 -54 -132 -156v-291h-88v508h85v-67h2c31 47 86 78 154 78z" />
    <glyph glyph-name="ncommaaccent" unicode="&#x146;" 
d="M319 519c116 0 184 -70 184 -209v-310h-88v303c0 106 -44 144 -117 144c-72 0 -132 -54 -132 -156v-291h-88v508h85v-67h2c31 47 86 78 154 78zM335 -154l-55 -103h-38l38 103h-34v89h89v-89z" />
    <glyph glyph-name="eng" unicode="&#x14b;" 
d="M321 520c56 0 99 -18 131 -50c37 -38 51 -86 51 -171v-333c0 -113 -60 -155 -147 -155c-16 0 -32 2 -47 5v70c10 -2 20 -3 29 -3c49 0 77 22 77 90v319c0 67 -9 98 -31 123c-21 22 -49 32 -86 32c-71 0 -132 -53 -132 -155v-292h-88v508h85v-68h2c37 55 96 80 156 80z
" />
    <glyph glyph-name="ntilde" unicode="&#xf1;" 
d="M405 706h58c-4 -73 -42 -115 -101 -115c-61 0 -97 51 -140 51c-28 0 -43 -18 -46 -51h-58c4 73 42 115 101 115c61 0 97 -51 140 -51c27 0 42 17 46 51zM319 519c116 0 184 -70 184 -209v-310h-88v303c0 106 -44 144 -117 144c-72 0 -132 -54 -132 -156v-291h-88v508h85
v-67h2c31 47 86 78 154 78z" />
    <glyph glyph-name="oacute" unicode="&#xf3;" horiz-adv-x="565" 
d="M292 569h-76l86 143h113zM282 522c149 0 242 -102 242 -268s-93 -268 -242 -268s-241 102 -241 268s92 268 241 268zM282 450c-92 0 -149 -75 -149 -196s57 -196 149 -196c93 0 150 75 150 196s-57 196 -150 196z" />
    <glyph glyph-name="obreve" unicode="&#x14f;" horiz-adv-x="565" 
d="M373 712h65c-7 -90 -63 -143 -155 -143c-93 0 -149 53 -156 143h66c6 -52 39 -81 90 -81c50 0 83 29 90 81zM282 522c149 0 242 -102 242 -268s-93 -268 -242 -268s-241 102 -241 268s92 268 241 268zM282 450c-92 0 -149 -75 -149 -196s57 -196 149 -196
c93 0 150 75 150 196s-57 196 -150 196z" />
    <glyph glyph-name="ocircumflex" unicode="&#xf4;" horiz-adv-x="565" 
d="M356 569l-73 93l-74 -93h-89l114 143h97l114 -143h-89zM282 522c149 0 242 -102 242 -268s-93 -268 -242 -268s-241 102 -241 268s92 268 241 268zM282 450c-92 0 -149 -75 -149 -196s57 -196 149 -196c93 0 150 75 150 196s-57 196 -150 196z" />
    <glyph glyph-name="odieresis" unicode="&#xf6;" horiz-adv-x="565" 
d="M226 613h-82v99h82v-99zM421 613h-82v99h82v-99zM282 522c149 0 242 -102 242 -268s-93 -268 -242 -268s-241 102 -241 268s92 268 241 268zM282 450c-92 0 -149 -75 -149 -196s57 -196 149 -196c93 0 150 75 150 196s-57 196 -150 196z" />
    <glyph glyph-name="ograve" unicode="&#xf2;" horiz-adv-x="565" 
d="M263 712l86 -143h-76l-123 143h113zM282 522c149 0 242 -102 242 -268s-93 -268 -242 -268s-241 102 -241 268s92 268 241 268zM282 450c-92 0 -149 -75 -149 -196s57 -196 149 -196c93 0 150 75 150 196s-57 196 -150 196z" />
    <glyph glyph-name="ohungarumlaut" unicode="&#x151;" horiz-adv-x="565" 
d="M218 569h-74l106 143h104zM378 569h-74l106 143h104zM282 522c149 0 242 -102 242 -268s-93 -268 -242 -268s-241 102 -241 268s92 268 241 268zM282 450c-92 0 -149 -75 -149 -196s57 -196 149 -196c93 0 150 75 150 196s-57 196 -150 196z" />
    <glyph glyph-name="omacron" unicode="&#x14d;" horiz-adv-x="565" 
d="M424 616h-284v64h284v-64zM282 522c149 0 242 -102 242 -268s-93 -268 -242 -268s-241 102 -241 268s92 268 241 268zM282 450c-92 0 -149 -75 -149 -196s57 -196 149 -196c93 0 150 75 150 196s-57 196 -150 196z" />
    <glyph glyph-name="oslash" unicode="&#xf8;" horiz-adv-x="566" 
d="M516 516l-53 -70c39 -46 61 -112 61 -192c0 -166 -93 -268 -242 -268c-54 0 -101 13 -138 38l-51 -66l-43 33l53 70c-40 46 -62 112 -62 193c0 166 92 268 241 268c55 0 102 -14 139 -39l52 68zM282 452c-94 0 -152 -76 -152 -198c0 -48 9 -90 26 -122l218 288
c-24 21 -56 32 -92 32zM282 56c95 0 153 76 153 198c0 49 -10 90 -27 122l-217 -289c24 -20 55 -31 91 -31z" />
    <glyph glyph-name="oslashacute" unicode="&#x1ff;" horiz-adv-x="566" 
d="M292 569h-76l86 143h113zM516 516l-53 -70c39 -46 61 -112 61 -192c0 -166 -93 -268 -242 -268c-54 0 -101 13 -138 38l-51 -66l-43 33l53 70c-40 46 -62 112 -62 193c0 166 92 268 241 268c55 0 102 -14 139 -39l52 68zM282 452c-94 0 -152 -76 -152 -198
c0 -48 9 -90 26 -122l218 288c-24 21 -56 32 -92 32zM282 56c95 0 153 76 153 198c0 49 -10 90 -27 122l-217 -289c24 -20 55 -31 91 -31z" />
    <glyph glyph-name="otilde" unicode="&#xf5;" horiz-adv-x="565" 
d="M397 706h58c-4 -73 -42 -115 -101 -115c-61 0 -97 51 -140 51c-28 0 -43 -18 -46 -51h-58c4 73 42 115 101 115c61 0 97 -51 140 -51c27 0 42 17 46 51zM282 522c149 0 242 -102 242 -268s-93 -268 -242 -268s-241 102 -241 268s92 268 241 268zM282 450
c-92 0 -149 -75 -149 -196s57 -196 149 -196c93 0 150 75 150 196s-57 196 -150 196z" />
    <glyph glyph-name="oe" unicode="&#x153;" horiz-adv-x="897" 
d="M635 54c70 0 114 41 126 98h90c-16 -89 -90 -166 -216 -166c-83 0 -145 38 -182 103c-37 -66 -100 -103 -181 -103c-142 0 -231 102 -231 268s89 268 231 268c81 0 143 -37 181 -102c36 63 97 102 179 102c109 0 189 -69 214 -177c7 -29 10 -65 10 -109h-364
c4 -125 65 -182 143 -182zM632 454c-76 0 -130 -54 -139 -151h276c-9 99 -63 151 -137 151zM272 58c87 0 140 75 140 196s-53 196 -140 196c-85 0 -139 -75 -139 -196s54 -196 139 -196z" />
    <glyph glyph-name="thorn" unicode="&#xfe;" 
d="M166 438h2c28 51 86 83 154 83c130 0 213 -104 213 -266s-83 -267 -212 -267c-68 0 -127 33 -155 84h-2v-257h-88v897h88v-274zM300 450c-84 0 -138 -75 -138 -195c0 -121 54 -196 138 -196c87 0 143 77 143 196s-56 195 -143 195z" />
    <glyph glyph-name="racute" unicode="&#x155;" horiz-adv-x="362" 
d="M216 569h-76l86 143h113zM314 513c11 0 26 -1 37 -4v-79c-11 1 -24 3 -35 3c-96 0 -150 -62 -150 -174v-259h-88v508h84v-78h2c34 56 85 83 150 83z" />
    <glyph glyph-name="rcaron" unicode="&#x159;" horiz-adv-x="362" 
d="M255 569h-97l-114 143h89l74 -93l73 93h89zM314 513c11 0 26 -1 37 -4v-79c-11 1 -24 3 -35 3c-96 0 -150 -62 -150 -174v-259h-88v508h84v-78h2c34 56 85 83 150 83z" />
    <glyph glyph-name="rcommaaccent" unicode="&#x157;" horiz-adv-x="362" 
d="M314 513c11 0 26 -1 37 -4v-79c-11 1 -24 3 -35 3c-96 0 -150 -62 -150 -174v-259h-88v508h84v-78h2c34 56 85 83 150 83zM166 -154l-55 -103h-38l38 103h-34v89h89v-89z" />
    <glyph glyph-name="sacute" unicode="&#x15b;" horiz-adv-x="494" 
d="M248 569h-76l86 143h113zM239 522c124 0 198 -61 198 -173h-86c0 68 -42 105 -113 105c-61 0 -99 -28 -99 -72c0 -53 37 -62 122 -82c93 -23 192 -44 192 -162c0 -91 -78 -152 -201 -152c-133 0 -212 64 -213 183h89c0 -73 46 -113 125 -113c66 0 110 30 110 76
c0 59 -42 70 -140 94c-85 21 -172 38 -172 149c0 87 77 147 188 147z" />
    <glyph glyph-name="scaron" unicode="&#x161;" horiz-adv-x="494" 
d="M287 569h-97l-114 143h89l74 -93l73 93h89zM239 522c124 0 198 -61 198 -173h-86c0 68 -42 105 -113 105c-61 0 -99 -28 -99 -72c0 -53 37 -62 122 -82c93 -23 192 -44 192 -162c0 -91 -78 -152 -201 -152c-133 0 -212 64 -213 183h89c0 -73 46 -113 125 -113
c66 0 110 30 110 76c0 59 -42 70 -140 94c-85 21 -172 38 -172 149c0 87 77 147 188 147z" />
    <glyph glyph-name="scedilla" unicode="&#x15f;" horiz-adv-x="494" 
d="M453 138c0 -83 -65 -141 -169 -151l-32 -49c6 1 17 3 26 3c43 0 80 -28 80 -74c0 -47 -36 -87 -110 -87c-39 0 -75 11 -105 27l18 37c26 -15 53 -21 78 -21c36 0 56 15 56 41c0 25 -20 42 -53 42c-12 0 -22 -2 -31 -6l-18 20l44 66c-124 5 -197 69 -198 183h89
c0 -73 46 -113 125 -113c66 0 110 30 110 76c0 59 -42 70 -140 94c-85 21 -172 38 -172 149c0 87 77 147 188 147c124 0 198 -61 198 -173h-86c0 68 -42 105 -113 105c-61 0 -99 -28 -99 -72c0 -53 37 -62 122 -82c93 -23 192 -44 192 -162z" />
    <glyph glyph-name="scircumflex" unicode="&#x15d;" horiz-adv-x="494" 
d="M312 569l-73 93l-74 -93h-89l114 143h97l114 -143h-89zM239 522c124 0 198 -61 198 -173h-86c0 68 -42 105 -113 105c-61 0 -99 -28 -99 -72c0 -53 37 -62 122 -82c93 -23 192 -44 192 -162c0 -91 -78 -152 -201 -152c-133 0 -212 64 -213 183h89c0 -73 46 -113 125 -113
c66 0 110 30 110 76c0 59 -42 70 -140 94c-85 21 -172 38 -172 149c0 87 77 147 188 147z" />
    <glyph glyph-name="scommaaccent" unicode="&#x219;" horiz-adv-x="494" 
d="M239 522c124 0 198 -61 198 -173h-86c0 68 -42 105 -113 105c-61 0 -99 -28 -99 -72c0 -53 37 -62 122 -82c93 -23 192 -44 192 -162c0 -91 -78 -152 -201 -152c-133 0 -212 64 -213 183h89c0 -73 46 -113 125 -113c66 0 110 30 110 76c0 59 -42 70 -140 94
c-85 21 -172 38 -172 149c0 87 77 147 188 147zM295 -154l-55 -103h-38l38 103h-34v89h89v-89z" />
    <glyph glyph-name="germandbls" unicode="&#xdf;" horiz-adv-x="557" 
d="M284 726c122 0 200 -68 200 -172c0 -78 -39 -130 -115 -155v-2c91 -17 149 -82 149 -190c0 -135 -90 -213 -231 -213c-16 0 -36 2 -51 6v75c11 -3 27 -5 40 -5c95 0 150 51 150 142c0 90 -55 145 -149 145h-14v78c91 0 134 39 134 111c0 67 -43 106 -112 106
c-79 0 -119 -49 -119 -148v-504h-88v510c0 137 75 216 206 216z" />
    <glyph glyph-name="longs" unicode="&#x17f;" horiz-adv-x="305" 
d="M241 717c18 0 39 -2 51 -5v-68c-6 2 -18 3 -29 3c-49 0 -74 -23 -74 -86v-561h-87v438h-89v70h89v63c0 98 49 146 139 146z" />
    <glyph glyph-name="tbar" unicode="&#x167;" horiz-adv-x="318" 
d="M257 69c13 0 27 2 36 5v-72c-15 -4 -38 -6 -56 -6c-97 0 -138 41 -138 146v101h-85v59h85v136h-88v70h88v123h88v-123h101v-70h-101v-136h98v-59h-98v-92c0 -58 19 -82 70 -82z" />
    <glyph glyph-name="tcaron" unicode="&#x165;" horiz-adv-x="320" 
d="M275 536h-54l29 176h80zM187 438v-287c0 -58 19 -82 70 -82c13 0 27 2 36 5v-72c-15 -4 -38 -6 -56 -6c-97 0 -138 41 -138 146v296h-88v70h88v123h88v-123h101v-70h-101z" />
    <glyph glyph-name="tcedilla" unicode="&#x163;" horiz-adv-x="320" 
d="M257 69c13 0 27 2 36 5v-72c-15 -4 -38 -6 -56 -6c-97 0 -138 41 -138 146v296h-88v70h88v123h88v-123h101v-70h-101v-287c0 -58 19 -82 70 -82zM134 -65h89v-89l-55 -103h-38l38 103h-34v89z" />
    <glyph glyph-name="tcommaaccent" unicode="&#x21b;" horiz-adv-x="320" 
d="M257 69c13 0 27 2 36 5v-72c-15 -4 -38 -6 -56 -6c-97 0 -138 41 -138 146v296h-88v70h88v123h88v-123h101v-70h-101v-287c0 -58 19 -82 70 -82zM134 -65h89v-89l-55 -103h-38l38 103h-34v89z" />
    <glyph glyph-name="uacute" unicode="&#xfa;" 
d="M297 569h-76l86 143h113zM256 -11c-116 0 -183 70 -183 209v310h88v-303c0 -106 44 -144 117 -144c71 0 132 54 132 156v291h88v-508h-85v67h-2c-31 -47 -87 -78 -155 -78z" />
    <glyph glyph-name="ubreve" unicode="&#x16d;" 
d="M379 712h65c-7 -90 -63 -143 -155 -143c-93 0 -149 53 -156 143h66c6 -52 39 -81 90 -81c50 0 83 29 90 81zM256 -11c-116 0 -183 70 -183 209v310h88v-303c0 -106 44 -144 117 -144c71 0 132 54 132 156v291h88v-508h-85v67h-2c-31 -47 -87 -78 -155 -78z" />
    <glyph glyph-name="ucircumflex" unicode="&#xfb;" 
d="M361 569l-73 93l-74 -93h-89l114 143h97l114 -143h-89zM256 -11c-116 0 -183 70 -183 209v310h88v-303c0 -106 44 -144 117 -144c71 0 132 54 132 156v291h88v-508h-85v67h-2c-31 -47 -87 -78 -155 -78z" />
    <glyph glyph-name="udieresis" unicode="&#xfc;" 
d="M231 613h-82v99h82v-99zM426 613h-82v99h82v-99zM256 -11c-116 0 -183 70 -183 209v310h88v-303c0 -106 44 -144 117 -144c71 0 132 54 132 156v291h88v-508h-85v67h-2c-31 -47 -87 -78 -155 -78z" />
    <glyph glyph-name="ugrave" unicode="&#xf9;" 
d="M269 712l86 -143h-76l-123 143h113zM256 -11c-116 0 -183 70 -183 209v310h88v-303c0 -106 44 -144 117 -144c71 0 132 54 132 156v291h88v-508h-85v67h-2c-31 -47 -87 -78 -155 -78z" />
    <glyph glyph-name="uhungarumlaut" unicode="&#x171;" 
d="M224 569h-74l106 143h104zM384 569h-74l106 143h104zM256 -11c-116 0 -183 70 -183 209v310h88v-303c0 -106 44 -144 117 -144c71 0 132 54 132 156v291h88v-508h-85v67h-2c-31 -47 -87 -78 -155 -78z" />
    <glyph glyph-name="umacron" unicode="&#x16b;" 
d="M430 616h-284v64h284v-64zM256 -11c-116 0 -183 70 -183 209v310h88v-303c0 -106 44 -144 117 -144c71 0 132 54 132 156v291h88v-508h-85v67h-2c-31 -47 -87 -78 -155 -78z" />
    <glyph glyph-name="uogonek" unicode="&#x173;" 
d="M462 -138c13 0 27 2 39 7v-53c-15 -6 -35 -10 -59 -10c-68 0 -99 31 -99 80c0 44 25 76 78 114h-8v67h-2c-31 -47 -87 -78 -155 -78c-116 0 -183 70 -183 209v310h88v-303c0 -106 44 -144 117 -144c71 0 132 54 132 156v291h88v-508c-58 -43 -76 -71 -76 -102
c0 -24 14 -36 40 -36z" />
    <glyph glyph-name="uring" unicode="&#x16f;" 
d="M288 766c56 0 101 -45 101 -100c0 -56 -45 -101 -101 -101c-55 0 -100 45 -100 101c0 55 45 100 100 100zM288 724c-31 0 -57 -26 -57 -58c0 -33 26 -58 57 -58c33 0 58 25 58 58c0 32 -25 58 -58 58zM256 -11c-116 0 -183 70 -183 209v310h88v-303
c0 -106 44 -144 117 -144c71 0 132 54 132 156v291h88v-508h-85v67h-2c-31 -47 -87 -78 -155 -78z" />
    <glyph glyph-name="utilde" unicode="&#x169;" 
d="M403 706h58c-4 -73 -42 -115 -101 -115c-61 0 -97 51 -140 51c-28 0 -43 -18 -46 -51h-58c4 73 42 115 101 115c61 0 97 -51 140 -51c27 0 42 17 46 51zM256 -11c-116 0 -183 70 -183 209v310h88v-303c0 -106 44 -144 117 -144c71 0 132 54 132 156v291h88v-508h-85v67
h-2c-31 -47 -87 -78 -155 -78z" />
    <glyph glyph-name="wacute" unicode="&#x1e83;" horiz-adv-x="770" 
d="M394 569h-76l86 143h113zM628 0h-126l-60 220c-19 74 -38 146 -56 220h-2c-18 -74 -37 -146 -56 -220l-60 -220h-126l-135 508h89l54 -212c19 -75 38 -153 56 -228h2c17 73 36 149 56 223l58 217h126l58 -217c19 -74 38 -150 56 -223h2c18 75 37 153 56 228l54 212h89z
" />
    <glyph glyph-name="wcircumflex" unicode="&#x175;" horiz-adv-x="770" 
d="M458 569l-73 93l-74 -93h-89l114 143h97l114 -143h-89zM628 0h-126l-60 220c-19 74 -38 146 -56 220h-2c-18 -74 -37 -146 -56 -220l-60 -220h-126l-135 508h89l54 -212c19 -75 38 -153 56 -228h2c17 73 36 149 56 223l58 217h126l58 -217c19 -74 38 -150 56 -223h2
c18 75 37 153 56 228l54 212h89z" />
    <glyph glyph-name="wdieresis" unicode="&#x1e85;" horiz-adv-x="770" 
d="M328 613h-82v99h82v-99zM523 613h-82v99h82v-99zM628 0h-126l-60 220c-19 74 -38 146 -56 220h-2c-18 -74 -37 -146 -56 -220l-60 -220h-126l-135 508h89l54 -212c19 -75 38 -153 56 -228h2c17 73 36 149 56 223l58 217h126l58 -217c19 -74 38 -150 56 -223h2
c18 75 37 153 56 228l54 212h89z" />
    <glyph glyph-name="wgrave" unicode="&#x1e81;" horiz-adv-x="770" 
d="M366 712l86 -143h-76l-123 143h113zM628 0h-126l-60 220c-19 74 -38 146 -56 220h-2c-18 -74 -37 -146 -56 -220l-60 -220h-126l-135 508h89l54 -212c19 -75 38 -153 56 -228h2c17 73 36 149 56 223l58 217h126l58 -217c19 -74 38 -150 56 -223h2c18 75 37 153 56 228
l54 212h89z" />
    <glyph glyph-name="yacute" unicode="&#xfd;" horiz-adv-x="472" 
d="M246 569h-76l86 143h113zM478 508l-204 -531c-50 -130 -100 -166 -209 -166c-17 0 -33 1 -46 5v74c12 -4 26 -6 42 -6c67 0 93 24 126 114l-193 510h95l146 -404h2l148 404h93z" />
    <glyph glyph-name="ycircumflex" unicode="&#x177;" horiz-adv-x="472" 
d="M310 569l-73 93l-74 -93h-89l114 143h97l114 -143h-89zM478 508l-204 -531c-50 -130 -100 -166 -209 -166c-17 0 -33 1 -46 5v74c12 -4 26 -6 42 -6c67 0 93 24 126 114l-193 510h95l146 -404h2l148 404h93z" />
    <glyph glyph-name="ydieresis" unicode="&#xff;" horiz-adv-x="472" 
d="M180 613h-82v99h82v-99zM375 613h-82v99h82v-99zM478 508l-204 -531c-50 -130 -100 -166 -209 -166c-17 0 -33 1 -46 5v74c12 -4 26 -6 42 -6c67 0 93 24 126 114l-193 510h95l146 -404h2l148 404h93z" />
    <glyph glyph-name="ygrave" unicode="&#x1ef3;" horiz-adv-x="472" 
d="M217 712l86 -143h-76l-123 143h113zM478 508l-204 -531c-50 -130 -100 -166 -209 -166c-17 0 -33 1 -46 5v74c12 -4 26 -6 42 -6c67 0 93 24 126 114l-193 510h95l146 -404h2l148 404h93z" />
    <glyph glyph-name="zacute" unicode="&#x17a;" horiz-adv-x="469" 
d="M235 569h-76l86 143h113zM433 432l-299 -358v-2h309v-72h-417v76l299 358v2h-289v72h397v-76z" />
    <glyph glyph-name="zcaron" unicode="&#x17e;" horiz-adv-x="469" 
d="M274 569h-97l-114 143h89l74 -93l73 93h89zM433 432l-299 -358v-2h309v-72h-417v76l299 358v2h-289v72h397v-76z" />
    <glyph glyph-name="zdotaccent" unicode="&#x17c;" horiz-adv-x="469" 
d="M269 613h-88v99h88v-99zM433 432l-299 -358v-2h309v-72h-417v76l299 358v2h-289v72h397v-76z" />
    <glyph glyph-name="j.acute.loclNLD" horiz-adv-x="249" 
d="M137 569h-76l86 143h113zM171 508v-537c0 -116 -59 -160 -146 -160c-17 0 -32 1 -47 5v70c10 -2 20 -3 29 -3c49 0 76 23 76 96v529h88z" />
    <glyph glyph-name="ccedilla.ss01" horiz-adv-x="534" 
d="M280 522c122 0 207 -80 217 -194h-92c-6 72 -56 122 -126 122c-90 0 -145 -75 -145 -196c0 -122 55 -196 145 -196c70 0 120 56 126 129h92c-10 -116 -93 -201 -217 -201c-147 0 -239 103 -239 268s92 268 239 268zM233 -211h-110l129 162h80z" />
    <glyph glyph-name="scedilla.ss01" horiz-adv-x="494" 
d="M239 522c124 0 198 -61 198 -173h-86c0 68 -42 105 -113 105c-61 0 -99 -28 -99 -72c0 -53 37 -62 122 -82c93 -23 192 -44 192 -162c0 -91 -78 -152 -201 -152c-133 0 -212 64 -213 183h89c0 -73 46 -113 125 -113c66 0 110 30 110 76c0 59 -42 70 -140 94
c-85 21 -172 38 -172 149c0 87 77 147 188 147zM205 -211h-110l129 162h80z" />
    <glyph glyph-name="tcedilla.ss01" horiz-adv-x="320" 
d="M257 69c13 0 27 2 36 5v-72c-15 -4 -38 -6 -56 -6c-97 0 -138 41 -138 146v296h-88v70h88v123h88v-123h101v-70h-101v-287c0 -58 19 -82 70 -82zM152 -49h80l-99 -162h-110z" />
    <glyph glyph-name="a.sups" horiz-adv-x="393" 
d="M192 696c94 0 149 -46 149 -141v-131c0 -42 4 -72 9 -94h-68c-3 16 -5 35 -5 50h-2c-26 -37 -67 -58 -126 -58c-77 0 -125 45 -125 106c0 60 36 98 143 114c32 4 73 9 101 11v12c0 55 -31 76 -77 76c-49 0 -75 -25 -76 -64h-76c4 66 54 119 153 119zM268 481v19
c-26 -2 -61 -6 -89 -11c-57 -9 -78 -24 -78 -56c0 -33 24 -55 69 -55c27 0 54 8 70 25c21 21 28 39 28 78z" />
    <glyph glyph-name="b.sups" horiz-adv-x="423" 
d="M130 640h2c20 33 62 56 108 56c94 0 154 -74 154 -187c0 -114 -61 -188 -155 -188c-47 0 -89 23 -108 58h-2v-49h-74v498h75v-188zM220 636c-56 0 -94 -50 -94 -127s38 -127 94 -127c58 0 95 50 95 127c0 76 -37 127 -95 127z" />
    <glyph glyph-name="c.sups" horiz-adv-x="393" 
d="M205 696c96 0 156 -64 162 -139h-79c-3 38 -33 77 -83 77c-59 0 -96 -48 -96 -126s37 -126 97 -126c45 0 79 37 82 83h79c-6 -84 -68 -145 -162 -145c-108 0 -176 72 -176 188s68 188 176 188z" />
    <glyph glyph-name="d.sups" horiz-adv-x="423" 
d="M368 828v-498h-74v49h-1c-20 -35 -62 -58 -109 -58c-94 0 -155 74 -155 188c0 113 60 187 155 187c46 0 87 -23 107 -56h2v188h75zM203 636c-57 0 -95 -51 -95 -127c0 -77 38 -127 95 -127s94 50 94 127s-37 127 -94 127z" />
    <glyph glyph-name="e.sups" horiz-adv-x="404" 
d="M205 376c50 0 81 26 89 61h78c-13 -62 -69 -117 -167 -117c-112 0 -176 77 -176 193c0 104 64 183 175 183c84 0 143 -46 163 -122c6 -22 8 -49 8 -82h-271c3 -82 47 -116 101 -116zM204 640c-53 0 -92 -32 -99 -95h195c-7 63 -45 95 -96 95z" />
    <glyph glyph-name="egrave.sups" horiz-adv-x="404" 
d="M205 376c50 0 81 26 89 61h78c-13 -62 -69 -117 -167 -117c-112 0 -176 77 -176 193c0 12 1 25 3 36l-23 23h28c19 73 78 124 167 124c84 0 143 -46 163 -122c6 -22 8 -49 8 -82h-208l13 -19h-72l-3 3c8 -71 50 -100 100 -100zM204 640c-45 0 -79 -23 -93 -68l19 -27h170
c-6 63 -45 95 -96 95z" />
    <glyph glyph-name="f.sups" horiz-adv-x="230" 
d="M199 774c-35 0 -52 -16 -52 -58v-30h72v-59h-72v-297h-75v297h-62v59h62v39c0 73 38 107 108 107c14 0 31 -2 41 -5v-56c-6 2 -14 3 -22 3z" />
    <glyph glyph-name="g.sups" horiz-adv-x="420" 
d="M184 695c44 0 82 -19 108 -56h1v47h73v-333c0 -107 -60 -159 -168 -159c-95 0 -150 43 -153 114h74c2 -38 32 -59 80 -59c63 0 93 30 93 105v38h-2c-25 -35 -63 -54 -106 -54c-94 0 -155 70 -155 179c0 108 61 178 155 178zM199 635c-56 0 -92 -47 -92 -118
s36 -118 92 -118c59 0 96 44 96 118c0 73 -37 118 -96 118z" />
    <glyph glyph-name="h.sups" horiz-adv-x="422" 
d="M130 645h2c25 33 65 49 106 49c85 0 133 -50 133 -147v-217h-76v211c0 69 -28 92 -77 92c-48 0 -88 -34 -88 -104v-199h-75v498h75v-183z" />
    <glyph glyph-name="i.sups" horiz-adv-x="185" 
d="M130 754h-75v74h75v-74zM130 330h-75v356h75v-356z" />
    <glyph glyph-name="j.sups" horiz-adv-x="190" 
d="M135 754h-75v74h75v-74zM135 686v-377c0 -81 -45 -112 -111 -112c-14 0 -27 1 -39 4v59c8 -2 15 -2 22 -2c34 0 53 14 53 59v369h75z" />
    <glyph glyph-name="k.sups" horiz-adv-x="373" 
d="M378 330h-98l-148 174h-2v-174h-75v498h75v-287h2l134 145h94l-156 -161z" />
    <glyph glyph-name="l.sups" horiz-adv-x="185" 
d="M130 330h-75v498h75v-498z" />
    <glyph glyph-name="m.sups" horiz-adv-x="630" 
d="M455 694c79 0 124 -49 124 -144v-220h-75v213c0 67 -25 90 -68 90c-51 0 -81 -41 -81 -106v-197h-76v221c0 53 -24 82 -68 82c-51 0 -81 -42 -81 -109v-194h-75v356h72v-42h2c27 33 58 50 101 50c49 0 89 -22 109 -66c25 42 62 66 116 66z" />
    <glyph glyph-name="n.sups" horiz-adv-x="422" 
d="M238 694c85 0 133 -50 133 -147v-217h-76v211c0 69 -28 92 -77 92c-48 0 -88 -34 -88 -104v-199h-75v356h72v-44h2c22 30 61 52 109 52z" />
    <glyph glyph-name="o.sups" horiz-adv-x="416" 
d="M208 696c111 0 179 -72 179 -188c0 -117 -68 -188 -179 -188c-109 0 -179 71 -179 188c0 116 70 188 179 188zM208 635c-61 0 -98 -48 -98 -127s37 -127 98 -127c62 0 100 48 100 127s-38 127 -100 127z" />
    <glyph glyph-name="p.sups" horiz-adv-x="423" 
d="M239 696c94 0 155 -74 155 -187c0 -114 -60 -188 -154 -188c-46 0 -88 23 -108 55h-2v-175h-75v485h74v-48h2c19 35 61 58 108 58zM220 636c-56 0 -94 -50 -94 -127s38 -127 94 -127c58 0 95 50 95 127c0 76 -37 127 -95 127z" />
    <glyph glyph-name="q.sups" horiz-adv-x="423" 
d="M184 696c47 0 89 -23 109 -58h1v48h74v-485h-75v175h-2c-20 -32 -61 -55 -107 -55c-95 0 -155 74 -155 188c0 113 61 187 155 187zM203 636c-57 0 -95 -51 -95 -127c0 -77 38 -127 95 -127s94 50 94 127s-37 127 -94 127z" />
    <glyph glyph-name="r.sups" horiz-adv-x="272" 
d="M236 690c9 0 20 -1 29 -3v-69c-9 2 -19 3 -29 3c-69 0 -106 -44 -106 -119v-172h-75v356h72v-53h2c26 39 62 57 107 57z" />
    <glyph glyph-name="s.sups" horiz-adv-x="366" 
d="M178 696c92 0 147 -42 148 -121h-74c0 43 -28 66 -75 66c-41 0 -65 -17 -65 -44c0 -34 25 -39 85 -53c64 -16 140 -31 140 -115c0 -66 -57 -109 -150 -109c-100 0 -158 44 -159 128h76c0 -47 30 -72 84 -72c44 0 73 19 73 47c0 38 -27 45 -98 62c-59 14 -126 26 -126 106
c0 62 54 105 141 105z" />
    <glyph glyph-name="t.sups" horiz-adv-x="240" 
d="M195 389c10 0 20 2 25 3v-61c-11 -2 -29 -4 -43 -4c-75 0 -107 30 -107 105v195h-63v59h63v87h75v-87h72v-59h-72v-184c0 -38 13 -54 50 -54z" />
    <glyph glyph-name="u.sups" horiz-adv-x="421" 
d="M184 322c-85 0 -133 50 -133 147v217h75v-211c0 -69 29 -92 77 -92s88 34 88 104v199h76v-356h-73v44h-1c-23 -30 -61 -52 -109 -52z" />
    <glyph glyph-name="v.sups" horiz-adv-x="349" 
d="M225 330h-100l-129 356h81l48 -142c18 -54 33 -100 49 -154h2c16 54 31 100 48 154l48 142h81z" />
    <glyph glyph-name="w.sups" horiz-adv-x="567" 
d="M467 330h-106l-38 146c-14 51 -26 101 -39 153h-1c-13 -52 -25 -102 -38 -153l-39 -146h-106l-95 356h76l35 -143c13 -51 26 -105 37 -156h2c12 50 24 102 37 152l39 147h105l39 -147c13 -50 26 -102 37 -152h2l37 156l35 143h76z" />
    <glyph glyph-name="x.sups" horiz-adv-x="357" 
d="M225 516l134 -186h-90l-89 136h-2l-90 -136h-89l133 186l-122 170h89l79 -122h2l79 122h88z" />
    <glyph glyph-name="y.sups" horiz-adv-x="353" 
d="M357 686l-141 -367c-37 -95 -73 -122 -156 -122c-12 0 -26 2 -37 4v61c9 -3 20 -4 29 -4c48 0 65 16 85 72l-141 356h82l100 -275h2l98 275h79z" />
    <glyph glyph-name="z.sups" horiz-adv-x="343" 
d="M318 622l-205 -229v-2h211v-61h-305v64l205 229v2h-199v61h293v-64z" />
    <glyph glyph-name="ff" unicode="&#xfb00;" horiz-adv-x="578" 
d="M536 647c-49 0 -74 -23 -74 -86v-53h101v-70h-101v-438h-87v438h-186v-438h-87v438h-89v70h89v63c0 98 49 146 139 146c18 0 39 -2 51 -5v-68c-6 2 -18 3 -29 3c-49 0 -74 -23 -74 -86v-53h186v63c0 98 49 146 139 146c18 0 38 -2 51 -5v-68c-7 2 -19 3 -29 3z" />
    <glyph glyph-name="ffi" unicode="&#xfb03;" horiz-adv-x="822" 
d="M375 508v63c0 98 49 146 139 146c18 0 38 -2 51 -5v-68c-7 2 -19 3 -29 3c-49 0 -74 -23 -74 -86v-53h101v-70h-101v-438h-87v438h-186v-438h-87v438h-89v70h89v63c0 98 49 146 139 146c18 0 39 -2 51 -5v-68c-6 2 -18 3 -29 3c-49 0 -74 -23 -74 -86v-53h186zM744 712
v-99h-88v99h88zM656 508h88v-508h-88v508z" />
    <glyph glyph-name="ffl" unicode="&#xfb04;" horiz-adv-x="822" 
d="M375 508v63c0 98 49 146 139 146c18 0 38 -2 51 -5v-68c-7 2 -19 3 -29 3c-49 0 -74 -23 -74 -86v-53h101v-70h-101v-438h-87v438h-186v-438h-87v438h-89v70h89v63c0 98 49 146 139 146c18 0 39 -2 51 -5v-68c-6 2 -18 3 -29 3c-49 0 -74 -23 -74 -86v-53h186zM744 712
v-712h-88v712h88z" />
    <glyph glyph-name="fi" unicode="&#xfb01;" horiz-adv-x="549" 
d="M102 508v63c0 98 49 146 139 146c18 0 39 -2 51 -5v-68c-6 2 -18 3 -29 3c-49 0 -74 -23 -74 -86v-53h101v-70h-101v-438h-87v438h-89v70h89zM471 712v-99h-88v99h88zM383 508h88v-508h-88v508z" />
    <glyph glyph-name="fl" unicode="&#xfb02;" horiz-adv-x="549" 
d="M102 508v63c0 98 49 146 139 146c18 0 39 -2 51 -5v-68c-6 2 -18 3 -29 3c-49 0 -74 -23 -74 -86v-53h101v-70h-101v-438h-87v438h-89v70h89zM471 712v-712h-88v712h88z" />
    <glyph glyph-name="a.smcp" horiz-adv-x="565" 
d="M407 146h-249l-55 -146h-98l216 548h123l216 -548h-98zM378 225l-17 45c-27 72 -52 138 -78 212h-2c-26 -74 -50 -140 -77 -212l-17 -45h191z" />
    <glyph glyph-name="aacute.smcp" horiz-adv-x="565" 
d="M292 609h-76l86 143h113zM407 146h-249l-55 -146h-98l216 548h123l216 -548h-98zM378 225l-17 45c-27 72 -52 138 -78 212h-2c-26 -74 -50 -140 -77 -212l-17 -45h191z" />
    <glyph glyph-name="abreve.smcp" horiz-adv-x="565" 
d="M283 609c-93 0 -149 53 -156 143h66c6 -52 39 -81 90 -81c50 0 83 29 90 81h65c-7 -90 -63 -143 -155 -143zM407 146h-249l-55 -146h-98l216 548h123l216 -548h-98zM378 225l-17 45c-27 72 -52 138 -78 212h-2c-26 -74 -50 -140 -77 -212l-17 -45h191z" />
    <glyph glyph-name="acircumflex.smcp" horiz-adv-x="565" 
d="M209 609h-89l114 143h97l114 -143h-89l-73 93zM407 146h-249l-55 -146h-98l216 548h123l216 -548h-98zM378 225l-17 45c-27 72 -52 138 -78 212h-2c-26 -74 -50 -140 -77 -212l-17 -45h191z" />
    <glyph glyph-name="adieresis.smcp" horiz-adv-x="565" 
d="M226 653h-82v99h82v-99zM421 653h-82v99h82v-99zM407 146h-249l-55 -146h-98l216 548h123l216 -548h-98zM378 225l-17 45c-27 72 -52 138 -78 212h-2c-26 -74 -50 -140 -77 -212l-17 -45h191z" />
    <glyph glyph-name="agrave.smcp" horiz-adv-x="565" 
d="M273 609l-123 143h113l86 -143h-76zM407 146h-249l-55 -146h-98l216 548h123l216 -548h-98zM378 225l-17 45c-27 72 -52 138 -78 212h-2c-26 -74 -50 -140 -77 -212l-17 -45h191z" />
    <glyph glyph-name="amacron.smcp" horiz-adv-x="565" 
d="M424 656h-284v64h284v-64zM407 146h-249l-55 -146h-98l216 548h123l216 -548h-98zM378 225l-17 45c-27 72 -52 138 -78 212h-2c-26 -74 -50 -140 -77 -212l-17 -45h191z" />
    <glyph glyph-name="aogonek.smcp" horiz-adv-x="565" 
d="M524 -138c13 0 27 2 39 7v-53c-15 -6 -35 -10 -59 -10c-68 0 -99 31 -99 80c0 44 25 76 78 114h-21l-55 146h-249l-55 -146h-98l216 548h123l216 -548c-58 -43 -76 -71 -76 -102c0 -24 14 -36 40 -36zM378 225l-17 45c-27 72 -52 138 -78 212h-2
c-26 -74 -50 -140 -77 -212l-17 -45h191z" />
    <glyph glyph-name="aring.smcp" horiz-adv-x="565" 
d="M282 605c-55 0 -100 45 -100 101c0 55 45 100 100 100c56 0 101 -45 101 -100c0 -56 -45 -101 -101 -101zM282 764c-31 0 -57 -26 -57 -58c0 -33 26 -58 57 -58c33 0 58 25 58 58c0 32 -25 58 -58 58zM407 146h-249l-55 -146h-98l216 548h123l216 -548h-98zM378 225
l-17 45c-27 72 -52 138 -78 212h-2c-26 -74 -50 -140 -77 -212l-17 -45h191z" />
    <glyph glyph-name="atilde.smcp" horiz-adv-x="565" 
d="M214 682c-28 0 -43 -18 -46 -51h-58c4 73 42 115 101 115c61 0 97 -51 140 -51c27 0 42 17 46 51h58c-4 -73 -42 -115 -101 -115c-61 0 -97 51 -140 51zM407 146h-249l-55 -146h-98l216 548h123l216 -548h-98zM378 225l-17 45c-27 72 -52 138 -78 212h-2
c-26 -74 -50 -140 -77 -212l-17 -45h191z" />
    <glyph glyph-name="ae.smcp" horiz-adv-x="782" 
d="M731 79v-79h-314l-25 157h-217l-78 -157h-102l277 548h452v-79h-289l24 -150h247v-78h-235l26 -162h234zM379 236l-37 234h-12l-116 -234h165z" />
    <glyph glyph-name="b.smcp" horiz-adv-x="547" 
d="M85 548h199c136 0 199 -58 199 -142c0 -61 -32 -104 -96 -124v-2c70 -16 108 -62 108 -127c0 -93 -73 -153 -198 -153h-212v548zM176 473v-158h95c87 0 122 28 122 78c0 53 -35 80 -117 80h-100zM176 242v-167h105c83 0 119 26 119 83c0 55 -36 84 -128 84h-96z" />
    <glyph glyph-name="c.smcp" horiz-adv-x="587" 
d="M296 562c144 0 233 -82 239 -202h-95c-8 77 -65 120 -144 120c-100 0 -162 -78 -162 -206c0 -129 62 -206 162 -206c78 0 134 45 145 123h97c-12 -127 -102 -205 -242 -205c-160 0 -258 108 -258 288c0 179 98 288 258 288z" />
    <glyph glyph-name="cacute.smcp" horiz-adv-x="587" 
d="M305 609h-76l86 143h113zM296 562c144 0 233 -82 239 -202h-95c-8 77 -65 120 -144 120c-100 0 -162 -78 -162 -206c0 -129 62 -206 162 -206c78 0 134 45 145 123h97c-12 -127 -102 -205 -242 -205c-160 0 -258 108 -258 288c0 179 98 288 258 288z" />
    <glyph glyph-name="ccaron.smcp" horiz-adv-x="587" 
d="M344 609h-97l-114 143h89l74 -93l73 93h89zM296 562c144 0 233 -82 239 -202h-95c-8 77 -65 120 -144 120c-100 0 -162 -78 -162 -206c0 -129 62 -206 162 -206c78 0 134 45 145 123h97c-12 -127 -102 -205 -242 -205c-160 0 -258 108 -258 288c0 179 98 288 258 288z
" />
    <glyph glyph-name="ccedilla.smcp" horiz-adv-x="587" 
d="M441 191h97c-11 -117 -88 -192 -209 -203l-32 -50c6 1 17 3 26 3c43 0 80 -28 80 -74c0 -47 -36 -87 -110 -87c-39 0 -75 11 -105 27l18 37c26 -15 53 -21 78 -21c36 0 56 15 56 41c0 25 -20 42 -53 42c-12 0 -22 -2 -31 -6l-18 20l44 66c-152 6 -244 113 -244 288
c0 179 98 288 258 288c144 0 233 -82 239 -202h-95c-8 77 -65 120 -144 120c-100 0 -162 -78 -162 -206c0 -129 62 -206 162 -206c78 0 134 45 145 123z" />
    <glyph glyph-name="ccircumflex.smcp" horiz-adv-x="587" 
d="M369 609l-73 93l-74 -93h-89l114 143h97l114 -143h-89zM296 562c144 0 233 -82 239 -202h-95c-8 77 -65 120 -144 120c-100 0 -162 -78 -162 -206c0 -129 62 -206 162 -206c78 0 134 45 145 123h97c-12 -127 -102 -205 -242 -205c-160 0 -258 108 -258 288
c0 179 98 288 258 288z" />
    <glyph glyph-name="cdotaccent.smcp" horiz-adv-x="587" 
d="M340 653h-88v99h88v-99zM296 562c144 0 233 -82 239 -202h-95c-8 77 -65 120 -144 120c-100 0 -162 -78 -162 -206c0 -129 62 -206 162 -206c78 0 134 45 145 123h97c-12 -127 -102 -205 -242 -205c-160 0 -258 108 -258 288c0 179 98 288 258 288z" />
    <glyph glyph-name="d.smcp" horiz-adv-x="609" 
d="M85 548h183c194 0 303 -98 303 -274s-109 -274 -303 -274h-183v548zM176 468v-388h92c134 0 207 68 207 194s-73 194 -207 194h-92z" />
    <glyph glyph-name="eth.smcp" horiz-adv-x="611" 
d="M87 548h183c194 0 303 -98 303 -274s-109 -274 -303 -274h-183v244h-63v66h63v238zM178 80h92c134 0 207 68 207 194s-73 194 -207 194h-92v-158h146v-66h-146v-164z" />
    <glyph glyph-name="dcaron.smcp" horiz-adv-x="609" 
d="M329 609h-97l-114 143h89l74 -93l73 93h89zM85 548h183c194 0 303 -98 303 -274s-109 -274 -303 -274h-183v548zM176 468v-388h92c134 0 207 68 207 194s-73 194 -207 194h-92z" />
    <glyph glyph-name="dcroat.smcp" horiz-adv-x="611" 
d="M87 548h183c194 0 303 -98 303 -274s-109 -274 -303 -274h-183v244h-63v66h63v238zM178 80h92c134 0 207 68 207 194s-73 194 -207 194h-92v-158h146v-66h-146v-164z" />
    <glyph glyph-name="e.smcp" horiz-adv-x="526" 
d="M470 469h-293v-150h276v-78h-276v-162h301v-79h-393v548h385v-79z" />
    <glyph glyph-name="eacute.smcp" horiz-adv-x="526" 
d="M287 609h-76l86 143h113zM470 469h-293v-150h276v-78h-276v-162h301v-79h-393v548h385v-79z" />
    <glyph glyph-name="ebreve.smcp" horiz-adv-x="526" 
d="M369 752h65c-7 -90 -63 -143 -155 -143c-93 0 -149 53 -156 143h66c6 -52 39 -81 90 -81c50 0 83 29 90 81zM470 469h-293v-150h276v-78h-276v-162h301v-79h-393v548h385v-79z" />
    <glyph glyph-name="ecaron.smcp" horiz-adv-x="526" 
d="M326 609h-97l-114 143h89l74 -93l73 93h89zM470 469h-293v-150h276v-78h-276v-162h301v-79h-393v548h385v-79z" />
    <glyph glyph-name="ecircumflex.smcp" horiz-adv-x="526" 
d="M351 609l-73 93l-74 -93h-89l114 143h97l114 -143h-89zM470 469h-293v-150h276v-78h-276v-162h301v-79h-393v548h385v-79z" />
    <glyph glyph-name="edieresis.smcp" horiz-adv-x="526" 
d="M221 653h-82v99h82v-99zM416 653h-82v99h82v-99zM470 469h-293v-150h276v-78h-276v-162h301v-79h-393v548h385v-79z" />
    <glyph glyph-name="edotaccent.smcp" horiz-adv-x="526" 
d="M322 653h-88v99h88v-99zM470 469h-293v-150h276v-78h-276v-162h301v-79h-393v548h385v-79z" />
    <glyph glyph-name="egrave.smcp" horiz-adv-x="526" 
d="M259 752l86 -143h-76l-123 143h113zM470 469h-293v-150h276v-78h-276v-162h301v-79h-393v548h385v-79z" />
    <glyph glyph-name="emacron.smcp" horiz-adv-x="526" 
d="M420 656h-284v64h284v-64zM470 469h-293v-150h276v-78h-276v-162h301v-79h-393v548h385v-79z" />
    <glyph glyph-name="eogonek.smcp" horiz-adv-x="526" 
d="M442 -138c13 0 27 2 39 7v-53c-15 -6 -35 -10 -59 -10c-68 0 -99 31 -99 80c0 44 25 76 78 114h-316v548h385v-79h-293v-150h276v-78h-276v-162h301v-79c-58 -43 -76 -71 -76 -102c0 -24 14 -36 40 -36z" />
    <glyph glyph-name="f.smcp" horiz-adv-x="486" 
d="M459 468h-283v-166h265v-80h-265v-222h-91v548h374v-80z" />
    <glyph glyph-name="fi.smcp" horiz-adv-x="748" 
d="M459 468h-283v-166h265v-80h-265v-222h-91v548h374v-80zM663 0h-92v548h92v-548z" />
    <glyph glyph-name="fl.smcp" horiz-adv-x="962" 
d="M459 468h-283v-166h265v-80h-265v-222h-91v548h374v-80zM663 80h289v-80h-381v548h92v-468z" />
    <glyph glyph-name="g.smcp" horiz-adv-x="617" 
d="M305 562c133 0 225 -68 238 -179h-98c-13 65 -63 98 -140 98c-104 0 -171 -79 -171 -208s64 -207 166 -207c91 0 154 47 155 157h-151v75h238v-298h-82v63h-2c-32 -46 -100 -74 -175 -74c-150 0 -245 107 -245 284c0 179 103 289 267 289z" />
    <glyph glyph-name="gbreve.smcp" horiz-adv-x="617" 
d="M390 752h65c-7 -90 -63 -143 -155 -143c-93 0 -149 53 -156 143h66c6 -52 39 -81 90 -81c50 0 83 29 90 81zM305 562c133 0 225 -68 238 -179h-98c-13 65 -63 98 -140 98c-104 0 -171 -79 -171 -208s64 -207 166 -207c91 0 154 47 155 157h-151v75h238v-298h-82v63h-2
c-32 -46 -100 -74 -175 -74c-150 0 -245 107 -245 284c0 179 103 289 267 289z" />
    <glyph glyph-name="gcircumflex.smcp" horiz-adv-x="617" 
d="M373 609l-73 93l-74 -93h-89l114 143h97l114 -143h-89zM305 562c133 0 225 -68 238 -179h-98c-13 65 -63 98 -140 98c-104 0 -171 -79 -171 -208s64 -207 166 -207c91 0 154 47 155 157h-151v75h238v-298h-82v63h-2c-32 -46 -100 -74 -175 -74c-150 0 -245 107 -245 284
c0 179 103 289 267 289z" />
    <glyph glyph-name="gcommaaccent.smcp" horiz-adv-x="617" 
d="M305 562c133 0 225 -68 238 -179h-98c-13 65 -63 98 -140 98c-104 0 -171 -79 -171 -208s64 -207 166 -207c91 0 154 47 155 157h-151v75h238v-298h-82v63h-2c-32 -46 -100 -74 -175 -74c-150 0 -245 107 -245 284c0 179 103 289 267 289zM347 -154l-55 -103h-38l38 103
h-34v89h89v-89z" />
    <glyph glyph-name="gdotaccent.smcp" horiz-adv-x="617" 
d="M343 653h-88v99h88v-99zM305 562c133 0 225 -68 238 -179h-98c-13 65 -63 98 -140 98c-104 0 -171 -79 -171 -208s64 -207 166 -207c91 0 154 47 155 157h-151v75h238v-298h-82v63h-2c-32 -46 -100 -74 -175 -74c-150 0 -245 107 -245 284c0 179 103 289 267 289z" />
    <glyph glyph-name="h.smcp" horiz-adv-x="630" 
d="M545 0h-92v244h-276v-244h-92v548h92v-224h276v224h92v-548z" />
    <glyph glyph-name="hbar.smcp" horiz-adv-x="630" 
d="M590 437h-45v-437h-92v244h-276v-244h-92v437h-45v55h45v56h92v-56h276v56h92v-56h45v-55zM453 437h-276v-113h276v113z" />
    <glyph glyph-name="hcircumflex.smcp" horiz-adv-x="630" 
d="M389 609l-73 93l-74 -93h-89l114 143h97l114 -143h-89zM545 0h-92v244h-276v-244h-92v548h92v-224h276v224h92v-548z" />
    <glyph glyph-name="i.smcp" horiz-adv-x="262" 
d="M177 0h-92v548h92v-548z" />
    <glyph glyph-name="iacute.smcp" horiz-adv-x="262" 
d="M140 609h-76l86 143h113zM177 0h-92v548h92v-548z" />
    <glyph glyph-name="ibreve.smcp" horiz-adv-x="262" 
d="M207 752h63c-4 -90 -54 -143 -139 -143s-135 53 -139 143h63c4 -53 31 -82 76 -82s72 29 76 82zM177 0h-92v548h92v-548z" />
    <glyph glyph-name="icircumflex.smcp" horiz-adv-x="262" 
d="M279 610h-85l-63 93l-62 -93h-86l100 142h96zM177 0h-92v548h92v-548z" />
    <glyph glyph-name="idieresis.smcp" horiz-adv-x="262" 
d="M95 653h-82v99h82v-99zM248 653h-81v99h81v-99zM177 0h-92v548h92v-548z" />
    <glyph glyph-name="idotaccent.smcp" horiz-adv-x="262" 
d="M175 653h-88v99h88v-99zM177 0h-92v548h92v-548z" />
    <glyph glyph-name="igrave.smcp" horiz-adv-x="262" 
d="M112 752l86 -143h-76l-123 143h113zM177 0h-92v548h92v-548z" />
    <glyph glyph-name="ij.smcp" horiz-adv-x="572" 
d="M177 0h-92v548h92v-548zM492 548v-382c0 -115 -58 -170 -171 -170c-17 0 -33 2 -46 5v79c12 -2 25 -3 35 -3c61 0 91 26 91 102v369h91z" />
    <glyph glyph-name="imacron.smcp" horiz-adv-x="262" 
d="M259 657h-257v65h257v-65zM177 0h-92v548h92v-548z" />
    <glyph glyph-name="iogonek.smcp" horiz-adv-x="262" 
d="M141 -138c13 0 27 2 39 7v-53c-15 -6 -35 -10 -59 -10c-68 0 -99 31 -99 80c0 44 25 76 78 114h-15v548h92v-548c-58 -43 -76 -71 -76 -102c0 -24 14 -36 40 -36z" />
    <glyph glyph-name="itilde.smcp" horiz-adv-x="262" 
d="M230 746h52c-3 -73 -37 -115 -93 -115c-54 0 -79 52 -116 52c-25 0 -39 -18 -42 -52h-51c3 73 37 115 93 115c54 0 79 -53 116 -53c26 0 38 18 41 53zM177 0h-92v548h92v-548z" />
    <glyph glyph-name="j.smcp" horiz-adv-x="310" 
d="M230 548v-382c0 -115 -58 -170 -171 -170c-17 0 -33 2 -46 5v79c12 -2 25 -3 35 -3c61 0 91 26 91 102v369h91z" />
    <glyph glyph-name="jcircumflex.smcp" horiz-adv-x="310" 
d="M332 610h-85l-63 93l-62 -93h-86l100 142h96zM230 548v-382c0 -115 -58 -170 -171 -170c-17 0 -33 2 -46 5v79c12 -2 25 -3 35 -3c61 0 91 26 91 102v369h91z" />
    <glyph glyph-name="k.smcp" horiz-adv-x="540" 
d="M270 287l266 -287h-122l-235 264h-2v-264h-92v548h92v-243h2l219 243h115z" />
    <glyph glyph-name="kcommaaccent.smcp" horiz-adv-x="540" 
d="M270 287l266 -287h-122l-235 264h-2v-264h-92v548h92v-243h2l219 243h115zM328 -154l-55 -103h-38l38 103h-34v89h89v-89z" />
    <glyph glyph-name="l.smcp" horiz-adv-x="476" 
d="M177 80h289v-80h-381v548h92v-468z" />
    <glyph glyph-name="lacute.smcp" horiz-adv-x="476" 
d="M172 609h-76l86 143h113zM177 80h289v-80h-381v548h92v-468z" />
    <glyph glyph-name="lcaron.smcp" horiz-adv-x="476" 
d="M177 80h289v-80h-381v548h92v-468zM282 372h-54l29 176h80z" />
    <glyph glyph-name="lcommaaccent.smcp" horiz-adv-x="476" 
d="M177 80h289v-80h-381v548h92v-468zM316 -154l-55 -103h-38l38 103h-34v89h89v-89z" />
    <glyph glyph-name="ldot.smcp" horiz-adv-x="536" 
d="M177 80h289v-80h-381v548h92v-468zM453 283h-108v117h108v-117z" />
    <glyph glyph-name="j.acute.loclNLD.smcp" horiz-adv-x="310" 
d="M193 609h-76l86 143h113zM230 548v-382c0 -115 -58 -170 -171 -170c-17 0 -33 2 -46 5v79c12 -2 25 -3 35 -3c61 0 91 26 91 102v369h91z" />
    <glyph glyph-name="lslash.smcp" horiz-adv-x="472" 
d="M462 80v-80h-381v235l-67 -38v75l67 38v238h92v-193l115 65v-75l-115 -64v-201h289z" />
    <glyph glyph-name="m.smcp" horiz-adv-x="802" 
d="M717 0h-89v271c0 67 1 135 2 202h-2c-24 -69 -47 -135 -72 -202l-101 -271h-108l-100 271c-25 67 -49 133 -73 202h-2c2 -67 2 -135 2 -202v-271h-89v548h148l95 -257c25 -68 50 -137 72 -207h2c23 70 47 139 73 207l94 257h148v-548z" />
    <glyph glyph-name="n.smcp" horiz-adv-x="648" 
d="M563 0h-135l-127 230c-44 79 -87 157 -127 234h-2c2 -84 2 -168 2 -252v-212h-89v548h136l127 -230c43 -78 86 -157 126 -234h2c-1 84 -2 168 -2 252v212h89v-548z" />
    <glyph glyph-name="nacute.smcp" horiz-adv-x="648" 
d="M333 609h-76l86 143h113zM563 0h-135l-127 230c-44 79 -87 157 -127 234h-2c2 -84 2 -168 2 -252v-212h-89v548h136l127 -230c43 -78 86 -157 126 -234h2c-1 84 -2 168 -2 252v212h89v-548z" />
    <glyph glyph-name="ncaron.smcp" horiz-adv-x="648" 
d="M372 609h-97l-114 143h89l74 -93l73 93h89zM563 0h-135l-127 230c-44 79 -87 157 -127 234h-2c2 -84 2 -168 2 -252v-212h-89v548h136l127 -230c43 -78 86 -157 126 -234h2c-1 84 -2 168 -2 252v212h89v-548z" />
    <glyph glyph-name="ncommaaccent.smcp" horiz-adv-x="648" 
d="M563 0h-135l-127 230c-44 79 -87 157 -127 234h-2c2 -84 2 -168 2 -252v-212h-89v548h136l127 -230c43 -78 86 -157 126 -234h2c-1 84 -2 168 -2 252v212h89v-548zM368 -154l-55 -103h-38l38 103h-34v89h89v-89z" />
    <glyph glyph-name="eng.smcp" horiz-adv-x="639" 
d="M554 548v-574c0 -96 -53 -133 -130 -133c-16 0 -30 1 -44 5v66c9 -1 17 -2 26 -2c37 0 58 18 58 64v26l-157 244c-46 69 -90 139 -134 210h-2c2 -79 3 -158 3 -237v-217h-89v548h125l123 -190c45 -69 90 -139 133 -210h2c-2 79 -3 158 -3 236v164h89z" />
    <glyph glyph-name="ntilde.smcp" horiz-adv-x="648" 
d="M439 746h58c-4 -73 -42 -115 -101 -115c-61 0 -97 51 -140 51c-28 0 -43 -18 -46 -51h-58c4 73 42 115 101 115c61 0 97 -51 140 -51c27 0 42 17 46 51zM563 0h-135l-127 230c-44 79 -87 157 -127 234h-2c2 -84 2 -168 2 -252v-212h-89v548h136l127 -230
c43 -78 86 -157 126 -234h2c-1 84 -2 168 -2 252v212h89v-548z" />
    <glyph glyph-name="o.smcp" horiz-adv-x="614" 
d="M307 562c165 0 269 -112 269 -288s-104 -288 -269 -288c-164 0 -268 112 -268 288s104 288 268 288zM307 480c-106 0 -172 -79 -172 -206s66 -206 172 -206c107 0 173 79 173 206s-66 206 -173 206z" />
    <glyph glyph-name="oacute.smcp" horiz-adv-x="614" 
d="M316 609h-76l86 143h113zM307 562c165 0 269 -112 269 -288s-104 -288 -269 -288c-164 0 -268 112 -268 288s104 288 268 288zM307 480c-106 0 -172 -79 -172 -206s66 -206 172 -206c107 0 173 79 173 206s-66 206 -173 206z" />
    <glyph glyph-name="obreve.smcp" horiz-adv-x="614" 
d="M398 752h65c-7 -90 -63 -143 -155 -143c-93 0 -149 53 -156 143h66c6 -52 39 -81 90 -81c50 0 83 29 90 81zM307 562c165 0 269 -112 269 -288s-104 -288 -269 -288c-164 0 -268 112 -268 288s104 288 268 288zM307 480c-106 0 -172 -79 -172 -206s66 -206 172 -206
c107 0 173 79 173 206s-66 206 -173 206z" />
    <glyph glyph-name="ocircumflex.smcp" horiz-adv-x="614" 
d="M380 609l-73 93l-74 -93h-89l114 143h97l114 -143h-89zM307 562c165 0 269 -112 269 -288s-104 -288 -269 -288c-164 0 -268 112 -268 288s104 288 268 288zM307 480c-106 0 -172 -79 -172 -206s66 -206 172 -206c107 0 173 79 173 206s-66 206 -173 206z" />
    <glyph glyph-name="odieresis.smcp" horiz-adv-x="614" 
d="M250 653h-82v99h82v-99zM445 653h-82v99h82v-99zM307 562c165 0 269 -112 269 -288s-104 -288 -269 -288c-164 0 -268 112 -268 288s104 288 268 288zM307 480c-106 0 -172 -79 -172 -206s66 -206 172 -206c107 0 173 79 173 206s-66 206 -173 206z" />
    <glyph glyph-name="ograve.smcp" horiz-adv-x="614" 
d="M288 752l86 -143h-76l-123 143h113zM307 562c165 0 269 -112 269 -288s-104 -288 -269 -288c-164 0 -268 112 -268 288s104 288 268 288zM307 480c-106 0 -172 -79 -172 -206s66 -206 172 -206c107 0 173 79 173 206s-66 206 -173 206z" />
    <glyph glyph-name="ohungarumlaut.smcp" horiz-adv-x="614" 
d="M243 609h-74l106 143h104zM403 609h-74l106 143h104zM307 562c165 0 269 -112 269 -288s-104 -288 -269 -288c-164 0 -268 112 -268 288s104 288 268 288zM307 480c-106 0 -172 -79 -172 -206s66 -206 172 -206c107 0 173 79 173 206s-66 206 -173 206z" />
    <glyph glyph-name="omacron.smcp" horiz-adv-x="614" 
d="M449 656h-284v64h284v-64zM307 562c165 0 269 -112 269 -288s-104 -288 -269 -288c-164 0 -268 112 -268 288s104 288 268 288zM307 480c-106 0 -172 -79 -172 -206s66 -206 172 -206c107 0 173 79 173 206s-66 206 -173 206z" />
    <glyph glyph-name="oslash.smcp" horiz-adv-x="614" 
d="M560 542l-51 -64c43 -50 67 -119 67 -204c0 -176 -104 -288 -269 -288c-60 0 -112 15 -154 43l-49 -61l-49 38l51 65c-43 49 -67 119 -67 203c0 176 104 288 268 288c61 0 113 -15 156 -43l47 60zM307 483c-108 0 -175 -81 -175 -209c0 -52 11 -96 31 -131l246 308
c-28 21 -62 32 -102 32zM307 65c108 0 175 81 175 209c0 51 -10 95 -30 129l-246 -307c27 -20 62 -31 101 -31z" />
    <glyph glyph-name="otilde.smcp" horiz-adv-x="614" 
d="M422 746h58c-4 -73 -42 -115 -101 -115c-61 0 -97 51 -140 51c-28 0 -43 -18 -46 -51h-58c4 73 42 115 101 115c61 0 97 -51 140 -51c27 0 42 17 46 51zM307 562c165 0 269 -112 269 -288s-104 -288 -269 -288c-164 0 -268 112 -268 288s104 288 268 288zM307 480
c-106 0 -172 -79 -172 -206s66 -206 172 -206c107 0 173 79 173 206s-66 206 -173 206z" />
    <glyph glyph-name="oe.smcp" horiz-adv-x="836" 
d="M778 469h-294v-150h276v-78h-276v-162h301v-79h-444c-192 0 -302 100 -302 274s110 274 302 274h437v-79zM393 469h-51c-133 0 -207 -71 -207 -195s74 -195 207 -195h51v390z" />
    <glyph glyph-name="p.smcp" horiz-adv-x="526" 
d="M85 548h205c138 0 211 -67 211 -174c0 -106 -73 -173 -211 -173h-113v-201h-92v548zM177 470v-191h105c83 0 124 34 124 96s-41 95 -124 95h-105z" />
    <glyph glyph-name="thorn.smcp" horiz-adv-x="526" 
d="M177 453h113c138 0 211 -67 211 -174c0 -106 -73 -173 -211 -173h-113v-106h-92v548h92v-95zM177 375v-191h105c83 0 124 34 124 96s-41 95 -124 95h-105z" />
    <glyph glyph-name="q.smcp" horiz-adv-x="614" 
d="M576 274c0 -86 -24 -156 -68 -206l61 -63l-54 -52l-66 68c-39 -23 -87 -35 -142 -35c-164 0 -268 111 -268 288c0 176 104 288 268 288c165 0 269 -112 269 -288zM135 273c0 -128 66 -208 173 -208c30 0 57 6 81 19l-74 75l54 52l76 -77c24 35 37 82 37 139
c0 128 -67 207 -174 207s-173 -79 -173 -207z" />
    <glyph glyph-name="r.smcp" horiz-adv-x="546" 
d="M85 548h196c133 0 207 -47 207 -151c0 -68 -42 -122 -108 -137v-2c42 -13 59 -36 85 -104l58 -154h-98l-50 139c-22 63 -49 82 -108 82h-90v-221h-92v548zM177 472v-177h99c84 0 119 39 119 94c0 60 -45 83 -122 83h-96z" />
    <glyph glyph-name="racute.smcp" horiz-adv-x="546" 
d="M282 609h-76l86 143h113zM85 548h196c133 0 207 -47 207 -151c0 -68 -42 -122 -108 -137v-2c42 -13 59 -36 85 -104l58 -154h-98l-50 139c-22 63 -49 82 -108 82h-90v-221h-92v548zM177 472v-177h99c84 0 119 39 119 94c0 60 -45 83 -122 83h-96z" />
    <glyph glyph-name="rcaron.smcp" horiz-adv-x="546" 
d="M322 609h-97l-114 143h89l74 -93l73 93h89zM85 548h196c133 0 207 -47 207 -151c0 -68 -42 -122 -108 -137v-2c42 -13 59 -36 85 -104l58 -154h-98l-50 139c-22 63 -49 82 -108 82h-90v-221h-92v548zM177 472v-177h99c84 0 119 39 119 94c0 60 -45 83 -122 83h-96z" />
    <glyph glyph-name="rcommaaccent.smcp" horiz-adv-x="546" 
d="M85 548h196c133 0 207 -47 207 -151c0 -68 -42 -122 -108 -137v-2c42 -13 59 -36 85 -104l58 -154h-98l-50 139c-22 63 -49 82 -108 82h-90v-221h-92v548zM177 472v-177h99c84 0 119 39 119 94c0 60 -45 83 -122 83h-96zM336 -154l-55 -103h-38l38 103h-34v89h89v-89z
" />
    <glyph glyph-name="s.smcp" horiz-adv-x="523" 
d="M247 562c141 0 214 -62 214 -182h-91c0 74 -46 107 -125 107c-67 0 -106 -29 -106 -77c0 -53 43 -67 134 -87c108 -25 201 -53 201 -167c0 -104 -84 -170 -215 -170c-139 0 -223 69 -223 195h92c0 -84 52 -119 132 -119c79 0 121 32 121 88c0 52 -45 69 -135 89
c-111 27 -199 51 -199 164c0 93 75 159 200 159z" />
    <glyph glyph-name="sacute.smcp" horiz-adv-x="523" 
d="M256 609h-76l86 143h113zM247 562c141 0 214 -62 214 -182h-91c0 74 -46 107 -125 107c-67 0 -106 -29 -106 -77c0 -53 43 -67 134 -87c108 -25 201 -53 201 -167c0 -104 -84 -170 -215 -170c-139 0 -223 69 -223 195h92c0 -84 52 -119 132 -119c79 0 121 32 121 88
c0 52 -45 69 -135 89c-111 27 -199 51 -199 164c0 93 75 159 200 159z" />
    <glyph glyph-name="scaron.smcp" horiz-adv-x="523" 
d="M295 609h-97l-114 143h89l74 -93l73 93h89zM247 562c141 0 214 -62 214 -182h-91c0 74 -46 107 -125 107c-67 0 -106 -29 -106 -77c0 -53 43 -67 134 -87c108 -25 201 -53 201 -167c0 -104 -84 -170 -215 -170c-139 0 -223 69 -223 195h92c0 -84 52 -119 132 -119
c79 0 121 32 121 88c0 52 -45 69 -135 89c-111 27 -199 51 -199 164c0 93 75 159 200 159z" />
    <glyph glyph-name="scedilla.smcp" horiz-adv-x="523" 
d="M474 156c0 -95 -70 -158 -182 -169l-32 -49c6 1 17 3 26 3c43 0 80 -28 80 -74c0 -47 -36 -87 -110 -87c-39 0 -75 11 -105 27l18 37c26 -15 53 -21 78 -21c36 0 56 15 56 41c0 25 -20 42 -53 42c-12 0 -22 -2 -31 -6l-18 20l44 66c-131 5 -209 73 -209 195h92
c0 -84 52 -119 132 -119c79 0 121 32 121 88c0 52 -45 69 -135 89c-111 27 -199 51 -199 164c0 93 75 159 200 159c141 0 214 -62 214 -182h-91c0 74 -46 107 -125 107c-67 0 -106 -29 -106 -77c0 -53 43 -67 134 -87c108 -25 201 -53 201 -167z" />
    <glyph glyph-name="scircumflex.smcp" horiz-adv-x="523" 
d="M320 609l-73 93l-74 -93h-89l114 143h97l114 -143h-89zM247 562c141 0 214 -62 214 -182h-91c0 74 -46 107 -125 107c-67 0 -106 -29 -106 -77c0 -53 43 -67 134 -87c108 -25 201 -53 201 -167c0 -104 -84 -170 -215 -170c-139 0 -223 69 -223 195h92
c0 -84 52 -119 132 -119c79 0 121 32 121 88c0 52 -45 69 -135 89c-111 27 -199 51 -199 164c0 93 75 159 200 159z" />
    <glyph glyph-name="scommaaccent.smcp" horiz-adv-x="523" 
d="M247 562c141 0 214 -62 214 -182h-91c0 74 -46 107 -125 107c-67 0 -106 -29 -106 -77c0 -53 43 -67 134 -87c108 -25 201 -53 201 -167c0 -104 -84 -170 -215 -170c-139 0 -223 69 -223 195h92c0 -84 52 -119 132 -119c79 0 121 32 121 88c0 52 -45 69 -135 89
c-111 27 -199 51 -199 164c0 93 75 159 200 159zM303 -154l-55 -103h-38l38 103h-34v89h89v-89z" />
    <glyph glyph-name="germandbls.smcp" horiz-adv-x="666" 
d="M570 457l-127 -130c110 -24 172 -80 172 -176c0 -107 -78 -165 -194 -165s-180 55 -180 160h88c0 -53 30 -83 92 -83c61 0 99 31 99 89c0 73 -63 105 -179 114v66l111 112c-29 24 -69 40 -117 40c-106 0 -163 -55 -163 -166v-318h-92v320c0 155 93 242 257 242
c99 0 182 -43 233 -105z" />
    <glyph glyph-name="t.smcp" horiz-adv-x="500" 
d="M490 468h-194v-468h-92v468h-194v80h480v-80z" />
    <glyph glyph-name="tbar.smcp" horiz-adv-x="500" 
d="M296 468v-157h109v-66h-109v-245h-92v245h-110v66h110v157h-194v80h480v-80h-194z" />
    <glyph glyph-name="tcaron.smcp" horiz-adv-x="500" 
d="M298 609h-97l-114 143h89l74 -93l73 93h89zM490 468h-194v-468h-92v468h-194v80h480v-80z" />
    <glyph glyph-name="tcedilla.smcp" horiz-adv-x="500" 
d="M490 468h-194v-468h-92v468h-194v80h480v-80zM294 -154l-55 -103h-38l38 103h-34v89h89v-89z" />
    <glyph glyph-name="tcommaaccent.smcp" horiz-adv-x="500" 
d="M490 468h-194v-468h-92v468h-194v80h480v-80zM294 -154l-55 -103h-38l38 103h-34v89h89v-89z" />
    <glyph glyph-name="u.smcp" horiz-adv-x="603" 
d="M523 548v-342c0 -143 -78 -220 -221 -220c-144 0 -222 77 -222 220v342h91v-341c0 -93 50 -139 131 -139s130 46 130 139v341h91z" />
    <glyph glyph-name="uacute.smcp" horiz-adv-x="603" 
d="M311 609h-76l86 143h113zM523 548v-342c0 -143 -78 -220 -221 -220c-144 0 -222 77 -222 220v342h91v-341c0 -93 50 -139 131 -139s130 46 130 139v341h91z" />
    <glyph glyph-name="ubreve.smcp" horiz-adv-x="603" 
d="M392 752h65c-7 -90 -63 -143 -155 -143c-93 0 -149 53 -156 143h66c6 -52 39 -81 90 -81c50 0 83 29 90 81zM523 548v-342c0 -143 -78 -220 -221 -220c-144 0 -222 77 -222 220v342h91v-341c0 -93 50 -139 131 -139s130 46 130 139v341h91z" />
    <glyph glyph-name="ucircumflex.smcp" horiz-adv-x="603" 
d="M375 609l-73 93l-74 -93h-89l114 143h97l114 -143h-89zM523 548v-342c0 -143 -78 -220 -221 -220c-144 0 -222 77 -222 220v342h91v-341c0 -93 50 -139 131 -139s130 46 130 139v341h91z" />
    <glyph glyph-name="udieresis.smcp" horiz-adv-x="603" 
d="M245 653h-82v99h82v-99zM440 653h-82v99h82v-99zM523 548v-342c0 -143 -78 -220 -221 -220c-144 0 -222 77 -222 220v342h91v-341c0 -93 50 -139 131 -139s130 46 130 139v341h91z" />
    <glyph glyph-name="ugrave.smcp" horiz-adv-x="603" 
d="M282 752l86 -143h-76l-123 143h113zM523 548v-342c0 -143 -78 -220 -221 -220c-144 0 -222 77 -222 220v342h91v-341c0 -93 50 -139 131 -139s130 46 130 139v341h91z" />
    <glyph glyph-name="uhungarumlaut.smcp" horiz-adv-x="603" 
d="M237 609h-74l106 143h104zM397 609h-74l106 143h104zM523 548v-342c0 -143 -78 -220 -221 -220c-144 0 -222 77 -222 220v342h91v-341c0 -93 50 -139 131 -139s130 46 130 139v341h91z" />
    <glyph glyph-name="umacron.smcp" horiz-adv-x="603" 
d="M443 656h-284v64h284v-64zM523 548v-342c0 -143 -78 -220 -221 -220c-144 0 -222 77 -222 220v342h91v-341c0 -93 50 -139 131 -139s130 46 130 139v341h91z" />
    <glyph glyph-name="uogonek.smcp" horiz-adv-x="603" 
d="M524 548v-340c0 -90 -31 -149 -92 -200c-56 -47 -75 -77 -75 -110c0 -24 14 -36 41 -36c12 0 26 2 38 7v-53c-15 -6 -35 -10 -58 -10c-68 0 -100 31 -100 80c0 40 22 69 64 104v2c-11 -2 -25 -3 -40 -3c-143 0 -222 77 -222 219v340h92v-339c0 -92 49 -138 130 -138
s130 46 130 138v339h92z" />
    <glyph glyph-name="uring.smcp" horiz-adv-x="603" 
d="M301 806c56 0 101 -45 101 -100c0 -56 -45 -101 -101 -101c-55 0 -100 45 -100 101c0 55 45 100 100 100zM301 764c-31 0 -57 -26 -57 -58c0 -33 26 -58 57 -58c33 0 58 25 58 58c0 32 -25 58 -58 58zM523 548v-342c0 -143 -78 -220 -221 -220c-144 0 -222 77 -222 220
v342h91v-341c0 -93 50 -139 131 -139s130 46 130 139v341h91z" />
    <glyph glyph-name="utilde.smcp" horiz-adv-x="603" 
d="M416 746h58c-4 -73 -42 -115 -101 -115c-61 0 -97 51 -140 51c-28 0 -43 -18 -46 -51h-58c4 73 42 115 101 115c61 0 97 -51 140 -51c27 0 42 17 46 51zM523 548v-342c0 -143 -78 -220 -221 -220c-144 0 -222 77 -222 220v342h91v-341c0 -93 50 -139 131 -139
s130 46 130 139v341h91z" />
    <glyph glyph-name="v.smcp" horiz-adv-x="520" 
d="M322 0h-123l-193 548h96l84 -241c26 -74 50 -149 73 -222h2c23 73 47 148 74 222l83 241h96z" />
    <glyph glyph-name="w.smcp" horiz-adv-x="769" 
d="M631 0h-133l-58 237c-19 78 -37 156 -54 233h-2c-17 -77 -35 -155 -54 -233l-58 -237h-133l-129 548h91l49 -212c19 -84 38 -169 56 -252h2c19 84 39 169 60 253l52 211h130l52 -211c21 -84 41 -169 60 -253h2c17 83 36 168 56 252l49 212h91z" />
    <glyph glyph-name="wacute.smcp" horiz-adv-x="769" 
d="M394 609h-76l86 143h113zM631 0h-133l-58 237c-19 78 -37 156 -54 233h-2c-17 -77 -35 -155 -54 -233l-58 -237h-133l-129 548h91l49 -212c19 -84 38 -169 56 -252h2c19 84 39 169 60 253l52 211h130l52 -211c21 -84 41 -169 60 -253h2c17 83 36 168 56 252l49 212h91z
" />
    <glyph glyph-name="wcircumflex.smcp" horiz-adv-x="769" 
d="M458 609l-73 93l-74 -93h-89l114 143h97l114 -143h-89zM631 0h-133l-58 237c-19 78 -37 156 -54 233h-2c-17 -77 -35 -155 -54 -233l-58 -237h-133l-129 548h91l49 -212c19 -84 38 -169 56 -252h2c19 84 39 169 60 253l52 211h130l52 -211c21 -84 41 -169 60 -253h2
c17 83 36 168 56 252l49 212h91z" />
    <glyph glyph-name="wdieresis.smcp" horiz-adv-x="769" 
d="M328 653h-82v99h82v-99zM523 653h-82v99h82v-99zM631 0h-133l-58 237c-19 78 -37 156 -54 233h-2c-17 -77 -35 -155 -54 -233l-58 -237h-133l-129 548h91l49 -212c19 -84 38 -169 56 -252h2c19 84 39 169 60 253l52 211h130l52 -211c21 -84 41 -169 60 -253h2
c17 83 36 168 56 252l49 212h91z" />
    <glyph glyph-name="wgrave.smcp" horiz-adv-x="769" 
d="M366 752l86 -143h-76l-123 143h113zM631 0h-133l-58 237c-19 78 -37 156 -54 233h-2c-17 -77 -35 -155 -54 -233l-58 -237h-133l-129 548h91l49 -212c19 -84 38 -169 56 -252h2c19 84 39 169 60 253l52 211h130l52 -211c21 -84 41 -169 60 -253h2c17 83 36 168 56 252
l49 212h91z" />
    <glyph glyph-name="x.smcp" horiz-adv-x="524" 
d="M319 283l198 -283h-110l-144 214h-2l-145 -214h-110l198 283l-186 265h107l136 -200h2l135 200h108z" />
    <glyph glyph-name="y.smcp" horiz-adv-x="516" 
d="M303 222v-222h-91v222l-209 326h105l66 -108c29 -47 56 -93 82 -140h2c26 47 54 93 83 140l66 108h105z" />
    <glyph glyph-name="yacute.smcp" horiz-adv-x="516" 
d="M267 609h-76l86 143h113zM303 222v-222h-91v222l-209 326h105l66 -108c29 -47 56 -93 82 -140h2c26 47 54 93 83 140l66 108h105z" />
    <glyph glyph-name="ycircumflex.smcp" horiz-adv-x="516" 
d="M331 609l-73 93l-74 -93h-89l114 143h97l114 -143h-89zM303 222v-222h-91v222l-209 326h105l66 -108c29 -47 56 -93 82 -140h2c26 47 54 93 83 140l66 108h105z" />
    <glyph glyph-name="ydieresis.smcp" horiz-adv-x="516" 
d="M201 653h-82v99h82v-99zM396 653h-82v99h82v-99zM303 222v-222h-91v222l-209 326h105l66 -108c29 -47 56 -93 82 -140h2c26 47 54 93 83 140l66 108h105z" />
    <glyph glyph-name="ygrave.smcp" horiz-adv-x="516" 
d="M238 752l86 -143h-76l-123 143h113zM303 222v-222h-91v222l-209 326h105l66 -108c29 -47 56 -93 82 -140h2c26 47 54 93 83 140l66 108h105z" />
    <glyph glyph-name="z.smcp" horiz-adv-x="470" 
d="M439 462l-315 -381v-2h330v-79h-438v86l316 381v2h-306v79h413v-86z" />
    <glyph glyph-name="zacute.smcp" horiz-adv-x="470" 
d="M242 609h-76l86 143h113zM439 462l-315 -381v-2h330v-79h-438v86l316 381v2h-306v79h413v-86z" />
    <glyph glyph-name="zcaron.smcp" horiz-adv-x="470" 
d="M281 609h-97l-114 143h89l74 -93l73 93h89zM439 462l-315 -381v-2h330v-79h-438v86l316 381v2h-306v79h413v-86z" />
    <glyph glyph-name="zdotaccent.smcp" horiz-adv-x="470" 
d="M276 653h-88v99h88v-99zM439 462l-315 -381v-2h330v-79h-438v86l316 381v2h-306v79h413v-86z" />
    <glyph glyph-name="ccedilla.smcp.ss01" horiz-adv-x="587" 
d="M296 562c144 0 233 -82 239 -202h-95c-8 77 -65 120 -144 120c-100 0 -162 -78 -162 -206c0 -129 62 -206 162 -206c78 0 134 45 145 123h97c-12 -127 -102 -205 -242 -205c-160 0 -258 108 -258 288c0 179 98 288 258 288zM250 -211h-110l129 162h80z" />
    <glyph glyph-name="scedilla.smcp.ss01" horiz-adv-x="523" 
d="M247 562c141 0 214 -62 214 -182h-91c0 74 -46 107 -125 107c-67 0 -106 -29 -106 -77c0 -53 43 -67 134 -87c108 -25 201 -53 201 -167c0 -104 -84 -170 -215 -170c-139 0 -223 69 -223 195h92c0 -84 52 -119 132 -119c79 0 121 32 121 88c0 52 -45 69 -135 89
c-111 27 -199 51 -199 164c0 93 75 159 200 159zM213 -211h-110l129 162h80z" />
    <glyph glyph-name="tcedilla.smcp.ss01" horiz-adv-x="500" 
d="M490 468h-194v-468h-92v468h-194v80h480v-80zM204 -211h-110l129 162h80z" />
    <glyph glyph-name="ordfeminine" unicode="&#xaa;" horiz-adv-x="393" 
d="M192 696c94 0 149 -46 149 -141v-131c0 -42 4 -72 9 -94h-68c-3 16 -5 35 -5 50h-2c-26 -37 -67 -58 -126 -58c-77 0 -125 45 -125 106c0 60 36 98 143 114c32 4 73 9 101 11v12c0 55 -31 76 -77 76c-49 0 -75 -25 -76 -64h-76c4 66 54 119 153 119zM268 481v19
c-26 -2 -61 -6 -89 -11c-57 -9 -78 -24 -78 -56c0 -33 24 -55 69 -55c27 0 54 8 70 25c21 21 28 39 28 78z" />
    <glyph glyph-name="ordmasculine" unicode="&#xba;" horiz-adv-x="416" 
d="M208 696c111 0 179 -72 179 -188c0 -117 -68 -188 -179 -188c-109 0 -179 71 -179 188c0 116 70 188 179 188zM208 635c-61 0 -98 -48 -98 -127s37 -127 98 -127c62 0 100 48 100 127s-38 127 -100 127z" />
    <glyph glyph-name="Acy" unicode="&#x410;" horiz-adv-x="675" 
d="M495 212h-314l-78 -212h-98l270 712h125l271 -712h-99zM465 293l-23 65c-36 99 -69 191 -103 290h-2c-34 -99 -67 -191 -103 -290l-24 -65h255z" />
    <glyph glyph-name="Becy" unicode="&#x411;" horiz-adv-x="632" 
d="M550 632h-363v-213h168c150 0 237 -81 237 -210c0 -128 -87 -209 -237 -209h-260v712h455v-80zM187 339v-259h151c103 0 158 47 158 129s-55 130 -158 130h-151z" />
    <glyph glyph-name="Vecy" unicode="&#x412;" horiz-adv-x="627" 
d="M95 712h232c164 0 240 -73 240 -181c0 -80 -41 -138 -118 -166v-2c85 -20 134 -80 134 -167c0 -119 -87 -196 -237 -196h-251v712zM187 634v-233h133c112 0 156 45 156 117c0 75 -45 116 -152 116h-137zM187 324v-246h146c105 0 155 43 155 123c0 77 -49 123 -168 123
h-133z" />
    <glyph glyph-name="Gecy" unicode="&#x413;" horiz-adv-x="488" 
d="M95 0v712h383v-82h-291v-630h-92z" />
    <glyph glyph-name="Gjecy" unicode="&#x403;" horiz-adv-x="488" 
d="M295 760h-76l86 138h113zM95 0v712h383v-82h-291v-630h-92z" />
    <glyph glyph-name="Gheupturncy" unicode="&#x490;" horiz-adv-x="488" 
d="M478 630h-291v-630h-92v712h295v148h88v-230z" />
    <glyph glyph-name="Decy" unicode="&#x414;" horiz-adv-x="731" 
d="M710 82v-242h-88v160h-517v-160h-88v242h72c43 77 75 222 82 630h457v-630h82zM535 630h-275c-7 -303 -34 -459 -70 -548h345v548z" />
    <glyph glyph-name="Iecy" unicode="&#x415;" horiz-adv-x="618" 
d="M554 630h-367v-225h346v-81h-346v-242h378v-82h-470v712h459v-82z" />
    <glyph glyph-name="Iegravecy" unicode="&#x400;" horiz-adv-x="618" 
d="M305 898l86 -138h-76l-123 138h113zM554 630h-367v-225h346v-81h-346v-242h378v-82h-470v712h459v-82z" />
    <glyph glyph-name="Iocy" unicode="&#x401;" horiz-adv-x="618" 
d="M268 775h-82v99h82v-99zM463 775h-82v99h82v-99zM554 630h-367v-225h346v-81h-346v-242h378v-82h-470v712h459v-82z" />
    <glyph glyph-name="Zhecy" unicode="&#x416;" horiz-adv-x="877" 
d="M581 373l291 -373h-114l-272 362h-2v-362h-91v362h-2l-273 -362h-113l291 373l-264 339h111l248 -333h2v333h91v-333h2l248 333h111z" />
    <glyph glyph-name="Zecy" unicode="&#x417;" horiz-adv-x="614" 
d="M303 725c158 0 253 -74 253 -194c0 -88 -48 -136 -129 -165v-2c91 -28 143 -79 143 -177c0 -121 -103 -201 -265 -201c-173 0 -271 85 -271 228h99c0 -95 60 -146 172 -146c103 0 165 48 165 122c0 84 -67 129 -190 129h-53v80h53c110 0 177 49 177 124
c0 73 -60 120 -158 120c-100 0 -159 -47 -159 -142h-99c0 141 100 224 262 224z" />
    <glyph glyph-name="Iicy" unicode="&#x418;" horiz-adv-x="755" 
d="M185 712v-285c0 -114 -1 -227 -3 -341h2c55 106 113 213 172 319l169 307h136v-712h-90v285c0 114 1 227 3 341h-2c-56 -106 -114 -213 -172 -319l-170 -307h-135v712h90z" />
    <glyph glyph-name="Iishortcy" unicode="&#x419;" horiz-adv-x="755" 
d="M465 898h65c-7 -90 -63 -142 -155 -142c-93 0 -149 52 -156 142h66c6 -51 39 -80 90 -80c50 0 83 29 90 80zM185 712v-285c0 -114 -1 -227 -3 -341h2c55 106 113 213 172 319l169 307h136v-712h-90v285c0 114 1 227 3 341h-2c-56 -106 -114 -213 -172 -319l-170 -307
h-135v712h90z" />
    <glyph glyph-name="Iigravecy" unicode="&#x40d;" horiz-adv-x="755" 
d="M355 898l86 -138h-76l-123 138h113zM185 712v-285c0 -114 -1 -227 -3 -341h2c55 106 113 213 172 319l169 307h136v-712h-90v285c0 114 1 227 3 341h-2c-56 -106 -114 -213 -172 -319l-170 -307h-135v712h90z" />
    <glyph glyph-name="Kacy" unicode="&#x41a;" horiz-adv-x="625" 
d="M281 373l340 -373h-123l-309 350h-2v-350h-92v712h92v-321h2l287 321h116z" />
    <glyph glyph-name="Kjecy" unicode="&#x40c;" horiz-adv-x="625" 
d="M331 760h-76l86 138h113zM281 373l340 -373h-123l-309 350h-2v-350h-92v712h92v-321h2l287 321h116z" />
    <glyph glyph-name="Elcy" unicode="&#x41b;" horiz-adv-x="707" 
d="M613 0h-93v630h-257c-13 -537 -68 -635 -215 -635c-14 0 -27 2 -36 5v77c4 -1 12 -2 18 -2c102 0 132 92 144 637h439v-712z" />
    <glyph glyph-name="Emcy" unicode="&#x41c;" horiz-adv-x="934" 
d="M839 0h-90v362c0 90 1 181 2 272h-2c-31 -91 -64 -181 -97 -272l-132 -362h-106l-132 362c-33 91 -66 181 -97 272h-2c1 -91 2 -182 2 -272v-362h-90v712h148l129 -351c32 -90 64 -183 94 -273h2c30 90 62 183 94 273l128 351h149v-712z" />
    <glyph glyph-name="Ency" unicode="&#x41d;" horiz-adv-x="737" 
d="M643 0h-93v329h-363v-329h-92v712h92v-302h363v302h93v-712z" />
    <glyph glyph-name="Ocy" unicode="&#x41e;" horiz-adv-x="732" 
d="M366 726c198 0 323 -143 323 -370s-125 -370 -323 -370s-323 143 -323 370s125 370 323 370zM366 642c-140 0 -227 -111 -227 -286s87 -286 227 -286c139 0 227 111 227 286s-88 286 -227 286z" />
    <glyph glyph-name="Pecy" unicode="&#x41f;" horiz-adv-x="727" 
d="M633 0h-93v630h-353v-630h-92v712h538v-712z" />
    <glyph glyph-name="Ercy" unicode="&#x420;" horiz-adv-x="616" 
d="M95 712h244c164 0 249 -85 249 -215s-85 -215 -249 -215h-152v-282h-92v712zM187 632v-270h145c108 0 161 51 161 135s-53 135 -161 135h-145z" />
    <glyph glyph-name="Escy" unicode="&#x421;" horiz-adv-x="689" 
d="M355 726c171 0 275 -108 283 -255h-95c-9 105 -82 171 -188 171c-134 0 -216 -108 -216 -286s81 -286 213 -286c106 0 180 67 194 175h96c-15 -159 -122 -259 -290 -259c-191 0 -309 140 -309 370c0 229 119 370 312 370z" />
    <glyph glyph-name="Tecy" unicode="&#x422;" horiz-adv-x="599" 
d="M589 630h-243v-630h-93v630h-243v82h579v-82z" />
    <glyph glyph-name="Ucy" unicode="&#x423;" horiz-adv-x="649" 
d="M645 712l-284 -576c-53 -107 -114 -144 -195 -144c-25 0 -48 3 -65 8v80c13 -4 29 -6 49 -6c56 0 93 24 124 92l-269 546h101l107 -229c37 -79 74 -158 110 -237h2c36 79 73 158 110 236l109 230h101z" />
    <glyph glyph-name="Ushortcy" unicode="&#x40e;" horiz-adv-x="649" 
d="M415 898h65c-7 -90 -63 -142 -155 -142c-93 0 -149 52 -156 142h66c6 -51 39 -80 90 -80c50 0 83 29 90 80zM645 712l-284 -576c-53 -107 -114 -144 -195 -144c-25 0 -48 3 -65 8v80c13 -4 29 -6 49 -6c56 0 93 24 124 92l-269 546h101l107 -229c37 -79 74 -158 110 -237
h2c36 79 73 158 110 236l109 230h101z" />
    <glyph glyph-name="Efcy" unicode="&#x424;" horiz-adv-x="827" 
d="M784 356c0 -181 -121 -293 -325 -301v-79h-91v79c-204 8 -325 120 -325 301s121 293 325 301v79h91v-79c204 -8 325 -120 325 -301zM139 356c0 -129 86 -211 229 -220v440c-143 -9 -229 -91 -229 -220zM459 576v-440c143 9 229 91 229 220s-86 211 -229 220z" />
    <glyph glyph-name="Hacy" unicode="&#x425;" horiz-adv-x="621" 
d="M367 365l247 -365h-110l-192 293h-2l-192 -293h-111l247 365l-233 347h108l181 -277h2l180 277h108z" />
    <glyph glyph-name="Checy" unicode="&#x427;" horiz-adv-x="643" 
d="M549 0h-93v296c-53 -16 -117 -25 -183 -25c-153 0 -237 77 -237 213v228h93v-214c0 -94 56 -146 163 -146c59 0 117 9 164 24v336h93v-712z" />
    <glyph glyph-name="Tsecy" unicode="&#x426;" horiz-adv-x="739" 
d="M633 82h82v-242h-88v160h-532v712h92v-630h353v630h93v-630z" />
    <glyph glyph-name="Shacy" unicode="&#x428;" horiz-adv-x="1020" 
d="M926 0h-831v712h92v-630h277v630h93v-630h277v630h92v-712z" />
    <glyph glyph-name="Shchacy" unicode="&#x429;" horiz-adv-x="1029" 
d="M926 82h82v-242h-88v160h-825v712h92v-630h277v630h93v-630h277v630h92v-630z" />
    <glyph glyph-name="Dzhecy" unicode="&#x40f;" horiz-adv-x="727" 
d="M633 0h-227v-160h-88v160h-223v712h92v-630h353v630h93v-712z" />
    <glyph glyph-name="Iacy" unicode="&#x42f;" horiz-adv-x="629" 
d="M535 712v-712h-93v297h-150c-12 0 -24 0 -35 1l-147 -298h-104l165 315c-86 31 -128 99 -128 192c0 127 81 205 249 205h243zM442 633h-142c-104 0 -163 -40 -163 -126c0 -76 46 -132 156 -132h149v258z" />
    <glyph glyph-name="Softsigncy" unicode="&#x42c;" horiz-adv-x="616" 
d="M95 0v712h92v-282h152c164 0 249 -85 249 -215s-85 -215 -249 -215h-244zM187 80h145c108 0 161 51 161 135s-53 135 -161 135h-145v-270z" />
    <glyph glyph-name="Hardsigncy" unicode="&#x42a;" horiz-adv-x="745" 
d="M316 430h152c164 0 249 -85 249 -215s-85 -215 -249 -215h-245v630h-213v82h306v-282zM316 350v-270h145c108 0 161 51 161 135s-53 135 -161 135h-145z" />
    <glyph glyph-name="Yerucy" unicode="&#x42b;" horiz-adv-x="898" 
d="M95 0v712h92v-282h152c164 0 249 -85 249 -215s-85 -215 -249 -215h-244zM803 0h-93v712h93v-712zM187 80h145c108 0 161 51 161 135s-53 135 -161 135h-145v-270z" />
    <glyph glyph-name="Ljecy" unicode="&#x409;" horiz-adv-x="1042" 
d="M613 430h152c164 0 249 -85 249 -215s-85 -215 -249 -215h-245v630h-257c-13 -537 -68 -635 -215 -635c-14 0 -27 2 -36 5v77c4 -1 12 -2 18 -2c102 0 132 92 144 637h439v-282zM613 350v-270h145c108 0 161 51 161 135s-53 135 -161 135h-145z" />
    <glyph glyph-name="Njecy" unicode="&#x40a;" horiz-adv-x="1072" 
d="M643 430h152c164 0 249 -85 249 -215s-85 -215 -249 -215h-245v338h-363v-338h-92v712h92v-292h363v292h93v-282zM643 80h145c108 0 161 51 161 135s-53 135 -161 135h-145v-270z" />
    <glyph glyph-name="Dzecy" unicode="&#x405;" horiz-adv-x="609" 
d="M288 726c170 0 255 -80 255 -234h-93c0 105 -58 155 -163 155c-88 0 -141 -43 -141 -111c0 -76 55 -98 172 -127c135 -33 242 -67 242 -213c0 -128 -100 -210 -255 -210c-166 0 -266 86 -266 250h95c0 -117 65 -171 172 -171c102 0 159 47 159 126s-59 99 -174 128
c-137 34 -239 68 -239 211c0 115 91 196 236 196z" />
    <glyph glyph-name="Ecy" unicode="&#x404;" horiz-adv-x="693" 
d="M549 245h96c-15 -159 -122 -259 -290 -259c-194 0 -312 140 -312 370c0 229 119 370 314 370c172 0 277 -108 285 -255h-95c-10 105 -83 171 -190 171c-124 0 -205 -92 -216 -245h316v-81h-317c12 -154 91 -246 215 -246c106 0 180 67 194 175z" />
    <glyph glyph-name="Ereversedcy" unicode="&#x42d;" horiz-adv-x="693" 
d="M336 726c194 0 314 -141 314 -370c0 -230 -119 -370 -312 -370c-168 0 -275 100 -290 259h95c15 -108 88 -175 195 -175c124 0 203 92 215 246h-317v81h316c-11 153 -92 245 -216 245c-107 0 -180 -66 -190 -171h-95c8 147 112 255 285 255z" />
    <glyph glyph-name="Icy" unicode="&#x406;" horiz-adv-x="282" 
d="M187 0h-92v712h92v-712z" />
    <glyph glyph-name="Yicy" unicode="&#x407;" horiz-adv-x="282" 
d="M84 775h-82v99h82v-99zM279 775h-82v99h82v-99zM187 0h-92v712h92v-712z" />
    <glyph glyph-name="Jecy" unicode="&#x408;" horiz-adv-x="356" 
d="M266 712v-508c0 -141 -68 -209 -201 -209c-18 0 -37 2 -50 6v82c16 -3 31 -5 43 -5c76 0 116 36 116 138v496h92z" />
    <glyph glyph-name="Tshecy" unicode="&#x40b;" horiz-adv-x="772" 
d="M518 434c142 0 218 -77 218 -214v-220h-92v207c0 94 -50 146 -144 146c-56 0 -108 -8 -154 -24v-329h-93v630h-243v82h579v-82h-243v-221c52 17 107 25 172 25z" />
    <glyph glyph-name="Iucy" unicode="&#x42e;" horiz-adv-x="984" 
d="M633 726c189 0 309 -143 309 -370s-120 -370 -309 -370c-178 0 -294 126 -308 330h-138v-316h-92v712h92v-315h138c14 203 131 329 308 329zM633 70c130 0 212 111 212 286s-82 286 -212 286s-213 -111 -213 -286s83 -286 213 -286z" />
    <glyph glyph-name="Djecy" unicode="&#x402;" horiz-adv-x="774" 
d="M589 630h-243v-214c48 25 98 37 158 37c155 0 242 -87 242 -233c0 -141 -91 -231 -240 -231c-33 0 -65 4 -87 11v81c21 -7 49 -11 79 -11c99 0 156 57 156 150c0 98 -55 152 -160 152c-55 0 -104 -12 -148 -37v-335h-93v630h-243v82h579v-82z" />
    <glyph glyph-name="Ghestrokecy" unicode="&#x492;" horiz-adv-x="488" 
d="M187 630v-254h144v-71h-144v-305h-92v305h-66v71h66v336h383v-82h-291z" />
    <glyph glyph-name="Zhedescendercy" unicode="&#x496;" horiz-adv-x="877" 
d="M872 82v-242h-88v160h-26l-272 362h-2v-362h-91v362h-2l-273 -362h-113l291 373l-264 339h111l248 -333h2v333h91v-333h2l248 333h111l-264 -339l227 -291h64z" />
    <glyph glyph-name="Kadescendercy" unicode="&#x49a;" horiz-adv-x="625" 
d="M621 82v-242h-88v160h-35l-309 350h-2v-350h-92v712h92v-321h2l287 321h116l-311 -339l265 -291h75z" />
    <glyph glyph-name="Kaverticalstrokecy" unicode="&#x49c;" horiz-adv-x="694" 
d="M326 329h-4v-171h-78v171h-58v-329h-91v712h91v-302h58v171h78v-171h4l225 302h111l-264 -341l291 -371h-114z" />
    <glyph glyph-name="kaverticalstrokecy" unicode="&#x49d;" horiz-adv-x="567" 
d="M287 242h-2v-136h-68v136h-52v-242h-87v508h87v-197h52v130h68v-130h4l156 197h107l-194 -229l217 -279h-113z" />
    <glyph glyph-name="Endescendercy" unicode="&#x4a2;" horiz-adv-x="749" 
d="M725 -160h-88v160h-87v329h-363v-329h-92v712h92v-302h363v302h93v-630h82v-242z" />
    <glyph glyph-name="Ustraitcy" unicode="&#x4ae;" horiz-adv-x="614" 
d="M353 295v-295h-92v295l-257 417h107l87 -147c37 -62 73 -125 108 -188h2c35 63 71 126 108 188l88 147h106z" />
    <glyph glyph-name="ustraitcy" unicode="&#x4af;" horiz-adv-x="470" 
d="M476 508l-197 -517v-176h-88v176l-197 517h94l72 -199c27 -72 50 -140 74 -212h2c24 72 47 140 73 212l73 199h94z" />
    <glyph glyph-name="Hadescendercy" unicode="&#x4b2;" horiz-adv-x="621" 
d="M617 82v-242h-88v160h-25l-192 293h-2l-192 -293h-111l247 365l-233 347h108l181 -277h2l180 277h108l-233 -347l192 -283h58z" />
    <glyph glyph-name="Cheverticalstrokecy" unicode="&#x4b8;" horiz-adv-x="643" 
d="M549 712v-712h-93v296c-36 -11 -77 -18 -120 -22v-146h-82v143c-141 7 -218 83 -218 213v228h93v-214c0 -82 43 -132 125 -144v211h82v-211c43 3 85 11 120 22v336h93z" />
    <glyph glyph-name="cheverticalstrokecy" unicode="&#x4b9;" horiz-adv-x="521" 
d="M443 508v-508h-88v202c-26 -8 -54 -13 -84 -16v-101h-68v98c-112 4 -171 62 -171 158v167h88v-154c0 -57 27 -90 83 -99v160h68v-161c31 2 60 9 84 17v237h88z" />
    <glyph glyph-name="Shhacy" unicode="&#x4ba;" horiz-adv-x="643" 
d="M95 712h92v-296c53 16 118 25 183 25c154 0 237 -77 237 -213v-228h-92v214c0 94 -57 146 -164 146c-58 0 -117 -9 -164 -24v-336h-92v712z" />
    <glyph glyph-name="Palochkacy" unicode="&#x4c0;" horiz-adv-x="282" 
d="M187 0h-92v712h92v-712z" />
    <glyph glyph-name="palochkacy" unicode="&#x4cf;" horiz-adv-x="244" 
d="M166 0h-88v712h88v-712z" />
    <glyph glyph-name="Schwacy" unicode="&#x4d8;" horiz-adv-x="741" 
d="M358 726c212 0 340 -145 340 -370c0 -215 -125 -370 -333 -370c-198 0 -322 143 -322 370c0 14 0 24 1 32h558c-6 171 -110 255 -245 255c-110 0 -180 -60 -197 -145h-101c24 124 125 228 299 228zM365 70c134 0 224 90 236 238h-461c11 -154 102 -238 225 -238z" />
    <glyph glyph-name="Obarredcy" unicode="&#x4e8;" horiz-adv-x="732" 
d="M366 726c198 0 323 -143 323 -370s-125 -370 -323 -370s-323 143 -323 370s125 370 323 370zM366 645c-130 0 -216 -95 -229 -248h459c-13 153 -99 248 -230 248zM366 67c131 0 217 95 230 249h-459c13 -154 98 -249 229 -249z" />
    <glyph glyph-name="obarredcy" unicode="&#x4e9;" horiz-adv-x="566" 
d="M282 522c149 0 242 -102 242 -268s-93 -268 -242 -268s-241 102 -241 268s92 268 241 268zM282 452c-86 0 -142 -63 -151 -166h302c-9 103 -65 166 -151 166zM282 56c86 0 142 63 151 166h-302c9 -103 65 -166 151 -166z" />
    <glyph glyph-name="Decy.loclBGR" horiz-adv-x="748" 
d="M732 82v-242h-88v160h-540v-160h-88v242h56l239 630h126l239 -630h56zM579 82l-101 276c-36 99 -69 191 -103 290h-2c-34 -99 -67 -191 -102 -290l-102 -276h410z" />
    <glyph glyph-name="Elcy.loclBGR" horiz-adv-x="660" 
d="M655 0h-102l-124 356c-35 98 -65 189 -98 287h-2c-33 -98 -63 -189 -97 -287l-126 -356h-101l261 712h128z" />
    <glyph glyph-name="acy" unicode="&#x430;" horiz-adv-x="531" 
d="M259 522c124 0 200 -63 200 -197v-195c0 -56 5 -99 12 -130h-80c-5 23 -7 51 -7 74h-2c-35 -54 -94 -85 -176 -85c-106 0 -172 63 -172 149c0 84 47 137 193 160c45 7 107 14 147 17v20c0 84 -47 119 -115 119c-74 0 -113 -41 -116 -101h-88c5 96 75 169 204 169z
M374 217v31c-39 -3 -94 -9 -133 -16c-87 -13 -117 -38 -117 -88c0 -52 38 -87 104 -87c41 0 80 14 105 40c31 32 41 60 41 120z" />
    <glyph glyph-name="becy" unicode="&#x431;" horiz-adv-x="575" 
d="M509 726v-78c-41 -11 -106 -18 -164 -23c-165 -13 -209 -78 -228 -232h2c26 64 80 110 177 110c143 0 235 -97 235 -252c0 -165 -93 -265 -242 -265c-152 0 -241 105 -241 288c0 323 88 411 281 427c64 6 134 13 180 25zM286 434c-109 0 -147 -78 -147 -181
c0 -122 55 -195 150 -195c94 0 150 69 150 186c0 120 -59 190 -153 190z" />
    <glyph glyph-name="vecy" unicode="&#x432;" horiz-adv-x="527" 
d="M78 508h204c126 0 189 -50 189 -134c0 -62 -34 -97 -88 -113v-2c60 -12 99 -54 99 -117c0 -90 -67 -142 -185 -142h-219v508zM164 443v-154h106c75 0 112 25 112 77s-37 77 -112 77h-106zM164 228v-163h110c79 0 118 27 118 81c0 55 -39 82 -118 82h-110z" />
    <glyph glyph-name="gecy" unicode="&#x433;" horiz-adv-x="417" 
d="M404 438h-238v-438h-88v508h326v-70z" />
    <glyph glyph-name="gjecy" unicode="&#x453;" horiz-adv-x="417" 
d="M250 569h-76l86 143h113zM404 438h-238v-438h-88v508h326v-70z" />
    <glyph glyph-name="gheupturncy" unicode="&#x491;" horiz-adv-x="417" 
d="M404 438h-238v-438h-88v508h242v160h84v-230z" />
    <glyph glyph-name="decy" unicode="&#x434;" horiz-adv-x="584" 
d="M571 70v-230h-88v160h-384v-160h-88v230h60c36 54 60 150 72 438h359v-438h69zM414 438h-186c-10 -199 -31 -306 -57 -368h243v368z" />
    <glyph glyph-name="iecy" unicode="&#x435;" horiz-adv-x="550" 
d="M280 54c74 0 122 41 134 98h90c-17 -89 -94 -166 -224 -166c-150 0 -239 109 -239 275c0 150 88 261 236 261c115 0 196 -68 222 -177c7 -29 10 -65 10 -109h-380c4 -125 68 -182 151 -182zM277 454c-81 0 -138 -54 -147 -151h292c-9 99 -67 151 -145 151z" />
    <glyph glyph-name="iegravecy" unicode="&#x450;" horiz-adv-x="550" 
d="M265 569l-123 143h113l86 -143h-76zM280 54c74 0 122 41 134 98h90c-17 -89 -94 -166 -224 -166c-150 0 -239 109 -239 275c0 150 88 261 236 261c115 0 196 -68 222 -177c7 -29 10 -65 10 -109h-380c4 -125 68 -182 151 -182zM277 454c-81 0 -138 -54 -147 -151h292
c-9 99 -67 151 -145 151z" />
    <glyph glyph-name="iocy" unicode="&#x451;" horiz-adv-x="550" 
d="M218 613h-82v99h82v-99zM413 613h-82v99h82v-99zM280 54c74 0 122 41 134 98h90c-17 -89 -94 -166 -224 -166c-150 0 -239 109 -239 275c0 150 88 261 236 261c115 0 196 -68 222 -177c7 -29 10 -65 10 -109h-380c4 -125 68 -182 151 -182zM277 454
c-81 0 -138 -54 -147 -151h292c-9 99 -67 151 -145 151z" />
    <glyph glyph-name="zhecy" unicode="&#x436;" horiz-adv-x="688" 
d="M697 0h-114l-194 267h-2v-267h-86v267h-2l-194 -267h-114l218 278l-194 230h107l177 -223h2v223h86v-223h2l177 223h107l-194 -230z" />
    <glyph glyph-name="zecy" unicode="&#x437;" horiz-adv-x="490" 
d="M245 522c115 0 187 -55 187 -143c0 -61 -31 -95 -89 -117v-2c63 -20 102 -57 102 -126c0 -92 -78 -148 -202 -148c-133 0 -209 61 -209 170h91c0 -67 41 -98 118 -98c70 0 112 31 112 78c0 57 -46 86 -129 86h-51v69h51c70 0 117 32 117 81c0 51 -39 78 -101 78
c-69 0 -108 -32 -108 -95h-90c0 105 78 167 201 167z" />
    <glyph glyph-name="iicy" unicode="&#x438;" horiz-adv-x="622" 
d="M544 0h-90v196c0 76 1 152 3 228h-2c-37 -70 -77 -140 -118 -211l-125 -213h-134v508h90v-196c0 -76 -1 -152 -3 -228h2c36 70 76 140 118 211l125 213h134v-508z" />
    <glyph glyph-name="iishortcy" unicode="&#x439;" horiz-adv-x="622" 
d="M402 712h65c-7 -90 -63 -143 -155 -143c-93 0 -149 53 -156 143h66c6 -52 39 -81 90 -81c50 0 83 29 90 81zM544 0h-90v196c0 76 1 152 3 228h-2c-37 -70 -77 -140 -118 -211l-125 -213h-134v508h90v-196c0 -76 -1 -152 -3 -228h2c36 70 76 140 118 211l125 213h134v-508
z" />
    <glyph glyph-name="iigravecy" unicode="&#x45d;" horiz-adv-x="622" 
d="M292 712l86 -143h-76l-123 143h113zM544 0h-90v196c0 76 1 152 3 228h-2c-37 -70 -77 -140 -118 -211l-125 -213h-134v508h90v-196c0 -76 -1 -152 -3 -228h2c36 70 76 140 118 211l125 213h134v-508z" />
    <glyph glyph-name="kacy" unicode="&#x43a;" horiz-adv-x="517" 
d="M509 0h-116l-225 254h-2v-254h-88v508h88v-211h2l205 211h109l-228 -230z" />
    <glyph glyph-name="kjecy" unicode="&#x45c;" horiz-adv-x="517" 
d="M279 569h-76l86 143h113zM509 0h-116l-225 254h-2v-254h-88v508h88v-211h2l205 211h109l-228 -230z" />
    <glyph glyph-name="elcy" unicode="&#x43b;" horiz-adv-x="551" 
d="M473 0h-88v438h-172c-8 -373 -59 -442 -170 -442c-14 0 -26 1 -37 4v67c5 -1 13 -2 20 -2c71 0 98 63 104 443h343v-508z" />
    <glyph glyph-name="emcy" unicode="&#x43c;" horiz-adv-x="768" 
d="M690 0h-85v247c0 63 1 126 2 189h-1c-24 -63 -47 -125 -73 -190l-96 -246h-106l-97 246c-25 65 -49 127 -72 190h-2c1 -63 2 -126 2 -189v-247h-84v508h142l91 -234c25 -63 50 -131 72 -195h2c22 64 46 132 71 195l92 234h142v-508z" />
    <glyph glyph-name="ency" unicode="&#x43d;" horiz-adv-x="589" 
d="M511 0h-88v220h-257v-220h-88v508h88v-218h257v218h88v-508z" />
    <glyph glyph-name="ocy" unicode="&#x43e;" horiz-adv-x="565" 
d="M282 522c149 0 242 -102 242 -268s-93 -268 -242 -268s-241 102 -241 268s92 268 241 268zM282 450c-92 0 -149 -75 -149 -196s57 -196 149 -196c93 0 150 75 150 196s-57 196 -150 196z" />
    <glyph glyph-name="pecy" unicode="&#x43f;" horiz-adv-x="581" 
d="M503 0h-88v438h-249v-438h-88v508h425v-508z" />
    <glyph glyph-name="ercy" unicode="&#x440;" 
d="M322 521c130 0 213 -104 213 -266s-83 -267 -212 -267c-68 0 -127 33 -155 84h-2v-257h-88v693h87v-73h2c27 53 87 86 155 86zM300 450c-84 0 -138 -75 -138 -195c0 -121 54 -196 138 -196c87 0 143 77 143 196s-56 195 -143 195z" />
    <glyph glyph-name="escy" unicode="&#x441;" horiz-adv-x="534" 
d="M280 522c122 0 207 -80 217 -194h-92c-6 72 -56 122 -126 122c-90 0 -145 -75 -145 -196c0 -122 55 -196 145 -196c70 0 120 56 126 129h92c-10 -116 -93 -201 -217 -201c-147 0 -239 103 -239 268s92 268 239 268z" />
    <glyph glyph-name="tecy" unicode="&#x442;" horiz-adv-x="451" 
d="M444 438h-173v-438h-90v438h-174v70l437 -1v-69z" />
    <glyph glyph-name="ucy" unicode="&#x443;" horiz-adv-x="472" 
d="M478 508l-204 -531c-50 -130 -100 -166 -209 -166c-17 0 -33 1 -46 5v74c12 -4 26 -6 42 -6c67 0 93 24 126 114l-193 510h95l146 -404h2l148 404h93z" />
    <glyph glyph-name="ushortcy" unicode="&#x45e;" horiz-adv-x="472" 
d="M327 712h65c-7 -90 -63 -143 -155 -143c-93 0 -149 53 -156 143h66c6 -52 39 -81 90 -81c50 0 83 29 90 81zM478 508l-204 -531c-50 -130 -100 -166 -209 -166c-17 0 -33 1 -46 5v74c12 -4 26 -6 42 -6c67 0 93 24 126 114l-193 510h95l146 -404h2l148 404h93z" />
    <glyph glyph-name="efcy" unicode="&#x444;" horiz-adv-x="787" 
d="M437 712v-231c30 26 66 40 105 40c124 0 204 -104 204 -266s-80 -267 -205 -267c-39 0 -74 13 -104 38v-211h-88v211c-29 -25 -64 -38 -103 -38c-125 0 -205 105 -205 267s80 266 204 266c39 0 75 -14 104 -40v231h88zM267 450c-81 0 -134 -76 -134 -195
s53 -196 134 -196c32 0 60 13 82 36v318c-22 24 -50 37 -82 37zM519 450c-32 0 -59 -13 -82 -37v-318c23 -23 50 -36 82 -36c82 0 135 77 135 196s-53 195 -135 195z" />
    <glyph glyph-name="hacy" unicode="&#x445;" horiz-adv-x="480" 
d="M294 264l189 -264h-106l-136 203h-2l-136 -203h-105l189 264l-173 244h104l121 -182h2l122 182h104z" />
    <glyph glyph-name="checy" unicode="&#x447;" horiz-adv-x="521" 
d="M443 0h-88v202c-42 -12 -87 -19 -139 -19c-120 0 -184 58 -184 158v167h88v-154c0 -65 40 -102 117 -102c43 0 85 8 118 19v237h88v-508z" />
    <glyph glyph-name="tsecy" unicode="&#x446;" horiz-adv-x="584" 
d="M503 70h68v-230h-88v160h-405v508h88v-438h249v438h88v-438z" />
    <glyph glyph-name="shacy" unicode="&#x448;" horiz-adv-x="837" 
d="M759 0h-681v508h88v-438h209v438h88v-438h208v438h88v-508z" />
    <glyph glyph-name="shchacy" unicode="&#x449;" horiz-adv-x="841" 
d="M759 70h62v-230h-88v160h-655v508h88v-438h209v438h88v-438h208v438h88v-438z" />
    <glyph glyph-name="dzhecy" unicode="&#x45f;" horiz-adv-x="581" 
d="M503 0h-170v-160h-88v160h-167v508h88v-438h249v438h88v-508z" />
    <glyph glyph-name="iacy" unicode="&#x44f;" horiz-adv-x="529" 
d="M451 508v-508h-88v190h-121h-15l-112 -190h-99l127 205c-67 24 -99 75 -99 146c0 98 65 157 201 157h206zM363 439h-111c-75 0 -119 -26 -119 -89c-1 -54 33 -93 113 -93h117v182z" />
    <glyph glyph-name="softsigncy" unicode="&#x44c;" horiz-adv-x="520" 
d="M166 320h124c126 0 195 -60 195 -160c0 -101 -69 -160 -195 -160h-212v508h88v-188zM166 252v-184h119c74 0 111 30 111 92s-37 92 -111 92h-119z" />
    <glyph glyph-name="hardsigncy" unicode="&#x44a;" horiz-adv-x="593" 
d="M245 320h124c126 0 195 -60 195 -160c0 -101 -69 -160 -195 -160h-212v438h-150v70h238v-188zM245 252v-184h119c74 0 111 30 111 92s-37 92 -111 92h-119z" />
    <glyph glyph-name="yerucy" unicode="&#x44b;" horiz-adv-x="728" 
d="M166 320h124c126 0 195 -60 195 -160c0 -101 -69 -160 -195 -160h-212v508h88v-188zM650 0h-88v508h88v-508zM166 252v-184h119c74 0 111 30 111 92s-37 92 -111 92h-119z" />
    <glyph glyph-name="ljecy" unicode="&#x459;" horiz-adv-x="827" 
d="M473 320h124c126 0 195 -60 195 -160c0 -101 -69 -160 -195 -160h-212v438h-172c-8 -373 -59 -442 -170 -442c-14 0 -26 1 -37 4v67c5 -1 13 -2 20 -2c71 0 98 63 104 443h343v-188zM473 252v-184h120c73 0 110 30 110 92s-37 92 -110 92h-120z" />
    <glyph glyph-name="njecy" unicode="&#x45a;" horiz-adv-x="865" 
d="M511 320h123c127 0 195 -60 195 -160c0 -101 -68 -160 -195 -160h-211v238h-257v-238h-88v508h88v-201h257v201h88v-188zM511 252v-184h119c73 0 110 30 110 92s-37 92 -110 92h-119z" />
    <glyph glyph-name="dzecy" unicode="&#x455;" horiz-adv-x="494" 
d="M239 522c124 0 198 -61 198 -173h-86c0 68 -42 105 -113 105c-61 0 -99 -28 -99 -72c0 -53 37 -62 122 -82c93 -23 192 -44 192 -162c0 -91 -78 -152 -201 -152c-133 0 -212 64 -213 183h89c0 -73 46 -113 125 -113c66 0 110 30 110 76c0 59 -42 70 -140 94
c-85 21 -172 38 -172 149c0 87 77 147 188 147z" />
    <glyph glyph-name="ereversedcy" unicode="&#x44d;" horiz-adv-x="534" 
d="M255 522c146 0 238 -103 238 -268s-92 -268 -238 -268c-125 0 -208 84 -218 199h91c6 -72 57 -128 127 -128c84 0 137 63 146 167h-223v68h222c-10 99 -63 159 -145 159c-74 0 -122 -56 -127 -120h-91c9 104 90 191 218 191z" />
    <glyph glyph-name="ecy" unicode="&#x454;" horiz-adv-x="534" 
d="M279 57c71 0 121 56 127 128h91c-10 -115 -93 -199 -217 -199c-147 0 -239 103 -239 268s92 268 239 268c127 0 208 -87 217 -191h-90c-5 64 -53 120 -128 120c-81 0 -134 -60 -144 -159h221v-68h-222c9 -104 62 -167 145 -167z" />
    <glyph glyph-name="yicy" unicode="&#x457;" horiz-adv-x="244" 
d="M86 613h-82v99h82v-99zM239 613h-81v99h81v-99zM166 0h-88v508h88v-508z" />
    <glyph glyph-name="icy" unicode="&#x456;" horiz-adv-x="244" 
d="M166 613h-88v99h88v-99zM166 0h-88v508h88v-508z" />
    <glyph glyph-name="jecy" unicode="&#x458;" horiz-adv-x="249" 
d="M171 613h-88v99h88v-99zM171 508v-537c0 -116 -59 -160 -146 -160c-17 0 -32 1 -47 5v70c10 -2 20 -3 29 -3c49 0 76 23 76 96v529h88z" />
    <glyph glyph-name="tshecy" unicode="&#x45b;" 
d="M319 465c116 0 184 -70 184 -209v-256h-88v249c0 106 -44 144 -117 144c-72 0 -132 -53 -132 -156v-237h-88v560h-71v61h71v91h88v-91h225v-61h-225v-170h2c35 51 92 75 151 75z" />
    <glyph glyph-name="iucy" unicode="&#x44e;" horiz-adv-x="789" 
d="M507 522c148 0 241 -102 241 -268s-93 -268 -241 -268c-138 0 -228 88 -241 233h-100v-219h-88v508h88v-220l100 1c13 145 103 233 241 233zM507 58c92 0 149 75 149 196s-57 196 -149 196c-93 0 -150 -75 -150 -196s57 -196 150 -196z" />
    <glyph glyph-name="djecy" unicode="&#x452;" 
d="M319 465c116 0 184 -70 184 -209v-291c0 -112 -60 -154 -147 -154c-16 0 -32 1 -47 5v70c10 -2 20 -3 29 -3c49 0 77 21 77 90v276c0 106 -44 144 -117 144c-72 0 -132 -53 -132 -156v-237h-88v560h-71v61h71v91h88v-91h225v-61h-225v-170h2c35 51 92 75 151 75z" />
    <glyph glyph-name="ghestrokecy" unicode="&#x493;" horiz-adv-x="419" 
d="M168 438v-162h132v-64h-132v-212h-88v212h-59v64h59v232h326v-70h-238z" />
    <glyph glyph-name="zhedescendercy" unicode="&#x497;" horiz-adv-x="688" 
d="M697 70v-230h-88v160h-26l-194 267h-2v-267h-86v267h-2l-194 -267h-114l218 278l-194 230h107l177 -223h2v223h86v-223h2l177 223h107l-194 -230l163 -208h55z" />
    <glyph glyph-name="kadescendercy" unicode="&#x49b;" horiz-adv-x="517" 
d="M509 70v-230h-88v160h-28l-225 254h-2v-254h-88v508h88v-211h2l205 211h109l-228 -230l191 -208h64z" />
    <glyph glyph-name="endescendercy" unicode="&#x4a3;" horiz-adv-x="592" 
d="M579 -160h-88v160h-68v220h-257v-220h-88v508h88v-218h257v218h88v-438h68v-230z" />
    <glyph glyph-name="hadescendercy" unicode="&#x4b3;" horiz-adv-x="480" 
d="M483 70v-230h-88v160h-18l-136 203h-2l-136 -203h-105l189 264l-173 244h104l121 -182h2l122 182h104l-173 -244l139 -194h50z" />
    <glyph glyph-name="shhacy" unicode="&#x4bb;" 
d="M166 444h2c35 51 92 75 151 75c116 0 184 -70 184 -209v-310h-88v303c0 106 -44 144 -117 144c-72 0 -132 -53 -132 -156v-291h-88v712h88v-268z" />
    <glyph glyph-name="schwacy" unicode="&#x4d9;" horiz-adv-x="550" 
d="M267 522c153 0 242 -107 242 -268c0 -155 -88 -268 -237 -268c-142 0 -231 104 -231 268c0 10 1 18 2 25h378c-4 120 -71 175 -154 175c-70 0 -113 -40 -124 -96h-91c17 88 90 164 215 164zM272 54c83 0 141 59 148 162h-291c7 -106 65 -162 143 -162z" />
    <glyph glyph-name="vecy.loclBGR" 
d="M390 386v-2c87 -19 147 -73 147 -188c0 -128 -91 -210 -237 -210c-152 0 -227 81 -227 220v280c0 157 75 240 218 240c130 0 207 -70 207 -180c0 -84 -42 -139 -108 -160zM292 655c-92 0 -131 -53 -131 -166v-75h100c102 0 151 46 151 127c0 71 -42 114 -120 114zM302 57
c90 0 145 52 145 140c0 104 -62 149 -186 149h-100v-138c0 -98 44 -151 141 -151z" />
    <glyph glyph-name="gecy.loclBGR" horiz-adv-x="494" 
d="M255 522c111 0 188 -59 188 -146c0 -107 -87 -125 -172 -145c-98 -24 -140 -36 -140 -97c0 -47 44 -77 110 -77c79 0 125 42 125 115h89c-1 -121 -81 -186 -213 -186c-123 0 -201 61 -201 151c0 114 99 135 192 157c85 21 122 30 122 86c0 44 -38 72 -100 72
c-70 0 -112 -37 -112 -107h-86c0 114 74 177 198 177z" />
    <glyph glyph-name="decy.loclBGR" horiz-adv-x="573" 
d="M256 521c65 0 117 -29 152 -87h2v74h85v-477c0 -149 -80 -224 -222 -224c-130 0 -207 61 -210 161h88c3 -59 49 -93 123 -93c90 0 135 47 135 160v55h-2c-36 -56 -87 -85 -151 -85c-131 0 -215 102 -215 258c0 157 84 258 215 258zM270 448c-83 0 -137 -73 -137 -185
c0 -111 54 -184 137 -184c88 0 142 71 142 184c0 114 -54 185 -142 185z" />
    <glyph glyph-name="zhecy.loclBGR" horiz-adv-x="688" 
d="M697 0h-114l-194 267h-2v-267h-86v267h-2l-194 -267h-114l218 278l-194 230h107l177 -223h2v427h86v-427h2l177 223h107l-194 -230z" />
    <glyph glyph-name="zecy.loclBGR" horiz-adv-x="516" 
d="M249 522c130 0 211 -74 211 -187c0 -82 -36 -131 -112 -160v-2c83 -29 123 -82 123 -172c0 -116 -91 -195 -224 -195c-140 0 -221 78 -221 206h92c0 -86 45 -134 129 -134c79 0 133 51 133 126c0 84 -56 129 -158 129h-79v70h79c92 0 148 50 148 128
c0 72 -48 119 -124 119c-79 0 -123 -45 -123 -136h-90c0 131 82 208 216 208z" />
    <glyph glyph-name="iicy.loclBGR" 
d="M256 -11c-116 0 -183 70 -183 209v310h88v-303c0 -106 44 -144 117 -144c71 0 132 54 132 156v291h88v-508h-85v67h-2c-31 -47 -87 -78 -155 -78z" />
    <glyph glyph-name="iishortcy.loclBGR" 
d="M379 712h65c-7 -90 -63 -143 -155 -143c-93 0 -149 53 -156 143h66c6 -52 39 -81 90 -81c50 0 83 29 90 81zM256 -11c-116 0 -183 70 -183 209v310h88v-303c0 -106 44 -144 117 -144c71 0 132 54 132 156v291h88v-508h-85v67h-2c-31 -47 -87 -78 -155 -78z" />
    <glyph glyph-name="kacy.loclBGR" horiz-adv-x="500" 
d="M509 0h-116l-225 254h-2v-254h-88v712h88v-415h2l205 211h109l-228 -230z" />
    <glyph glyph-name="elcy.loclBGR" horiz-adv-x="470" 
d="M178 508h114l184 -508h-94l-73 213c-26 77 -49 149 -73 226h-2c-24 -77 -48 -149 -74 -226l-72 -213h-94z" />
    <glyph glyph-name="pecy.loclBGR" 
d="M319 519c116 0 184 -70 184 -209v-310h-88v303c0 106 -44 144 -117 144c-72 0 -132 -54 -132 -156v-291h-88v508h85v-67h2c31 47 86 78 154 78z" />
    <glyph glyph-name="tecy.loclBGR" horiz-adv-x="863" 
d="M619 519c108 0 171 -68 171 -205v-314h-88v307c0 102 -39 140 -104 140c-74 0 -120 -62 -120 -159v-288h-88v320c0 80 -38 127 -103 127c-75 0 -121 -63 -121 -165v-282h-88v508h85v-63h2c36 49 83 74 142 74c70 0 124 -33 151 -96c34 61 86 96 161 96z" />
    <glyph glyph-name="tsecy.loclBGR" horiz-adv-x="579" 
d="M566 -160h-88v160h-65v67h-2c-31 -47 -87 -78 -155 -78c-116 0 -183 70 -183 209v310h88v-303c0 -106 44 -144 117 -144c71 0 132 54 132 156v291h88v-438h68v-230z" />
    <glyph glyph-name="shacy.loclBGR" horiz-adv-x="863" 
d="M785 508v-508h-85v63h-2c-37 -49 -83 -74 -143 -74c-69 0 -124 33 -150 96c-35 -61 -87 -96 -161 -96c-108 0 -171 68 -171 205v314h88v-307c0 -102 39 -140 103 -140c75 0 121 62 121 159v288h88v-320c0 -80 37 -127 102 -127c75 0 122 63 122 165v282h88z" />
    <glyph glyph-name="shchacy.loclBGR" horiz-adv-x="866" 
d="M853 -160h-88v160h-65v63h-2c-37 -49 -83 -74 -143 -74c-69 0 -124 33 -150 96c-34 -61 -86 -96 -161 -96c-108 0 -171 68 -171 205v314h88v-307c0 -102 39 -140 103 -140c75 0 121 62 121 159v288h88v-320c0 -80 37 -127 102 -127c75 0 122 63 122 165v282h88v-438h68
v-230z" />
    <glyph glyph-name="softsigncy.loclBGR" horiz-adv-x="533" 
d="M161 307h2c24 38 73 62 139 62c119 0 196 -73 196 -190c0 -120 -83 -193 -212 -193c-130 0 -213 75 -213 196v326h88v-201zM279 298c-74 0 -119 -46 -119 -120c0 -75 46 -121 123 -121c76 0 123 45 123 121c0 75 -48 120 -127 120z" />
    <glyph glyph-name="hardsigncy.loclBGR" horiz-adv-x="617" 
d="M245 307h2c24 38 73 62 139 62c119 0 196 -73 196 -190c0 -120 -83 -193 -212 -193c-130 0 -213 75 -213 196v252h-150v74h238v-201zM363 298c-74 0 -119 -46 -119 -120c0 -75 46 -121 123 -121c76 0 123 45 123 121c0 75 -48 120 -127 120z" />
    <glyph glyph-name="iucy.loclBGR" horiz-adv-x="789" 
d="M507 522c148 0 241 -102 241 -268s-93 -268 -241 -268c-138 0 -228 88 -241 233h-100v-219h-88v712h88v-424l100 1c13 145 103 233 241 233zM507 58c92 0 149 75 149 196s-57 196 -149 196c-93 0 -150 -75 -150 -196s57 -196 150 -196z" />
    <glyph glyph-name="becy.loclSRB" horiz-adv-x="566" 
d="M492 726v-68c-37 -14 -82 -20 -140 -20h-84c-50 0 -70 -14 -70 -47c0 -39 30 -62 116 -88c139 -41 210 -123 210 -263c0 -157 -93 -254 -241 -254s-242 95 -242 250c0 130 61 213 169 232v2c-75 31 -104 77 -104 127c0 75 44 111 149 111h100c55 0 100 6 137 18zM283 420
c-93 0 -149 -67 -149 -181c0 -112 56 -181 149 -181s149 69 149 179c0 115 -56 183 -149 183z" />
    <glyph glyph-name="Alpha" unicode="&#x391;" horiz-adv-x="675" 
d="M495 212h-314l-78 -212h-98l270 712h125l271 -712h-99zM465 293l-23 65c-36 99 -69 191 -103 290h-2c-34 -99 -67 -191 -103 -290l-24 -65h255z" />
    <glyph glyph-name="Beta" unicode="&#x392;" horiz-adv-x="627" 
d="M95 712h232c164 0 240 -73 240 -181c0 -80 -41 -138 -118 -166v-2c85 -20 134 -80 134 -167c0 -119 -87 -196 -237 -196h-251v712zM187 634v-233h133c112 0 156 45 156 117c0 75 -45 116 -152 116h-137zM187 324v-246h146c105 0 155 43 155 123c0 77 -49 123 -168 123
h-133z" />
    <glyph glyph-name="Gamma" unicode="&#x393;" horiz-adv-x="488" 
d="M95 0v712h383v-82h-291v-630h-92z" />
    <glyph glyph-name="Delta" unicode="&#x394;" horiz-adv-x="675" 
d="M671 0h-666l271 712h125zM542 82l-101 276c-36 99 -69 191 -103 290h-2c-34 -99 -67 -191 -103 -290l-101 -276h410z" />
    <glyph glyph-name="Epsilon" unicode="&#x395;" horiz-adv-x="618" 
d="M554 630h-367v-225h346v-81h-346v-242h378v-82h-470v712h459v-82z" />
    <glyph glyph-name="Zeta" unicode="&#x396;" horiz-adv-x="566" 
d="M529 624l-403 -541v-2h422v-81h-530v88l403 541v2h-392v81h500v-88z" />
    <glyph glyph-name="Eta" unicode="&#x397;" horiz-adv-x="737" 
d="M643 0h-93v329h-363v-329h-92v712h92v-302h363v302h93v-712z" />
    <glyph glyph-name="Theta" unicode="&#x398;" horiz-adv-x="732" 
d="M366 726c198 0 323 -143 323 -370s-125 -370 -323 -370s-323 143 -323 370s125 370 323 370zM366 644c-141 0 -229 -111 -229 -288c0 -176 88 -287 229 -287s229 111 229 287c0 177 -88 288 -229 288zM509 317h-287v80h287v-80z" />
    <glyph glyph-name="Iota" unicode="&#x399;" horiz-adv-x="282" 
d="M187 0h-92v712h92v-712z" />
    <glyph glyph-name="Kappa" unicode="&#x39a;" horiz-adv-x="625" 
d="M281 373l340 -373h-123l-309 350h-2v-350h-92v712h92v-321h2l287 321h116z" />
    <glyph glyph-name="Lambda" unicode="&#x39b;" horiz-adv-x="660" 
d="M655 0h-102l-124 356c-35 98 -65 189 -98 287h-2c-33 -98 -63 -189 -97 -287l-126 -356h-101l261 712h128z" />
    <glyph glyph-name="Mu" unicode="&#x39c;" horiz-adv-x="934" 
d="M839 0h-90v362c0 90 1 181 2 272h-2c-31 -91 -64 -181 -97 -272l-132 -362h-106l-132 362c-33 91 -66 181 -97 272h-2c1 -91 2 -182 2 -272v-362h-90v712h148l129 -351c32 -90 64 -183 94 -273h2c30 90 62 183 94 273l128 351h149v-712z" />
    <glyph glyph-name="Nu" unicode="&#x39d;" horiz-adv-x="755" 
d="M661 0h-136l-169 307c-59 106 -117 213 -172 319h-2c2 -114 3 -227 3 -341v-285h-90v712h135l170 -307c58 -106 116 -213 172 -319h2c-2 114 -3 227 -3 341v285h90v-712z" />
    <glyph glyph-name="Xi" unicode="&#x39e;" horiz-adv-x="661" 
d="M591 620h-521v92h521v-92zM574 311h-487v92h487v-92zM605 0h-549v92h549v-92z" />
    <glyph glyph-name="Omicron" unicode="&#x39f;" horiz-adv-x="732" 
d="M366 726c198 0 323 -143 323 -370s-125 -370 -323 -370s-323 143 -323 370s125 370 323 370zM366 642c-140 0 -227 -111 -227 -286s87 -286 227 -286c139 0 227 111 227 286s-88 286 -227 286z" />
    <glyph glyph-name="Pi" unicode="&#x3a0;" horiz-adv-x="727" 
d="M633 0h-93v630h-353v-630h-92v712h538v-712z" />
    <glyph glyph-name="Rho" unicode="&#x3a1;" horiz-adv-x="616" 
d="M95 712h244c164 0 249 -85 249 -215s-85 -215 -249 -215h-152v-282h-92v712zM187 632v-270h145c108 0 161 51 161 135s-53 135 -161 135h-145z" />
    <glyph glyph-name="Sigma" unicode="&#x3a3;" horiz-adv-x="561" 
d="M528 631h-382v-2l196 -267l-208 -279v-2h408v-81h-521v83l208 279l-197 269v81h496v-81z" />
    <glyph glyph-name="Tau" unicode="&#x3a4;" horiz-adv-x="599" 
d="M589 630h-243v-630h-93v630h-243v82h579v-82z" />
    <glyph glyph-name="Upsilon" unicode="&#x3a5;" horiz-adv-x="614" 
d="M353 295v-295h-92v295l-257 417h107l87 -147c37 -62 73 -125 108 -188h2c35 63 71 126 108 188l88 147h106z" />
    <glyph glyph-name="Phi" unicode="&#x3a6;" horiz-adv-x="791" 
d="M441 738v-70c189 -9 307 -114 307 -309s-118 -299 -307 -309v-76h-91v76c-190 10 -307 115 -307 311c0 194 117 298 307 307v70h91zM350 131v456c-133 -5 -212 -82 -212 -226c0 -146 79 -225 212 -230zM441 587v-456c133 5 212 83 212 228s-79 223 -212 228z" />
    <glyph glyph-name="Chi" unicode="&#x3a7;" horiz-adv-x="621" 
d="M367 365l247 -365h-110l-192 293h-2l-192 -293h-111l247 365l-233 347h108l181 -277h2l180 277h108z" />
    <glyph glyph-name="Psi" unicode="&#x3a8;" horiz-adv-x="781" 
d="M735 712v-221c0 -210 -93 -302 -298 -310v-181h-93v181c-204 8 -298 100 -298 310v221h93v-220c0 -157 57 -221 205 -226v446h93v-446c148 5 206 69 206 226v220h92z" />
    <glyph glyph-name="Omega" unicode="&#x3a9;" horiz-adv-x="729" 
d="M364 726c185 0 316 -102 316 -315c0 -138 -70 -237 -159 -328v-2h170v-81h-264v84c88 90 157 183 157 317c0 162 -92 241 -220 241c-127 0 -219 -79 -219 -241c0 -134 69 -227 157 -317v-84h-264v81h170v2c-89 91 -159 190 -159 328c0 213 131 315 315 315z" />
    <glyph glyph-name="Alphatonos" unicode="&#x386;" horiz-adv-x="675" 
d="M495 212h-314l-78 -212h-98l270 712h125l271 -712h-99zM114 512h-69l41 200h89zM465 293l-23 65c-36 99 -69 191 -103 290h-2c-34 -99 -67 -191 -103 -290l-24 -65h255z" />
    <glyph glyph-name="Epsilontonos" unicode="&#x388;" horiz-adv-x="618" 
d="M-26 512h-69l41 200h89zM554 630h-367v-225h346v-81h-346v-242h378v-82h-470v712h459v-82z" />
    <glyph glyph-name="Etatonos" unicode="&#x389;" horiz-adv-x="737" 
d="M-26 512h-69l41 200h89zM643 0h-93v329h-363v-329h-92v712h92v-302h363v302h93v-712z" />
    <glyph glyph-name="Iotatonos" unicode="&#x38a;" horiz-adv-x="282" 
d="M-26 512h-69l41 200h89zM187 0h-92v712h92v-712z" />
    <glyph glyph-name="Omicrontonos" unicode="&#x38c;" horiz-adv-x="732" 
d="M366 726c198 0 323 -143 323 -370s-125 -370 -323 -370s-323 143 -323 370s125 370 323 370zM9 512h-69l41 200h89zM366 642c-140 0 -227 -111 -227 -286s87 -286 227 -286c139 0 227 111 227 286s-88 286 -227 286z" />
    <glyph glyph-name="Upsilontonos" unicode="&#x38e;" horiz-adv-x="614" 
d="M-85 512h-69l41 200h89zM353 295v-295h-92v295l-257 417h107l87 -147c37 -62 73 -125 108 -188h2c35 63 71 126 108 188l88 147h106z" />
    <glyph glyph-name="Omegatonos" unicode="&#x38f;" horiz-adv-x="729" 
d="M364 726c185 0 316 -102 316 -315c0 -138 -70 -237 -159 -328v-2h170v-81h-264v84c88 90 157 183 157 317c0 162 -92 241 -220 241c-127 0 -219 -79 -219 -241c0 -134 69 -227 157 -317v-84h-264v81h170v2c-89 91 -159 190 -159 328c0 213 131 315 315 315zM3 512h-69
l41 200h89z" />
    <glyph glyph-name="Iotadieresis" unicode="&#x3aa;" horiz-adv-x="282" 
d="M84 817h-82v99h82v-99zM279 817h-82v99h82v-99zM187 0h-92v712h92v-712z" />
    <glyph glyph-name="Upsilondieresis" unicode="&#x3ab;" horiz-adv-x="614" 
d="M250 775h-82v99h82v-99zM445 775h-82v99h82v-99zM353 295v-295h-92v295l-257 417h107l87 -147c37 -62 73 -125 108 -188h2c35 63 71 126 108 188l88 147h106z" />
    <glyph glyph-name="alpha" unicode="&#x3b1;" horiz-adv-x="587" 
d="M254 521c70 0 130 -35 158 -91h2c1 24 4 54 8 78h87c-7 -43 -11 -96 -11 -180v-184c0 -62 13 -79 47 -79c8 0 16 1 24 4v-66c-18 -6 -37 -9 -60 -9c-57 0 -86 25 -95 85h-2c-28 -57 -89 -91 -159 -91c-129 0 -212 105 -212 267s83 266 213 266zM276 450
c-87 0 -143 -76 -143 -195s56 -196 143 -196c84 0 139 75 139 196c0 120 -55 195 -139 195z" />
    <glyph glyph-name="beta" unicode="&#x3b2;" horiz-adv-x="583" 
d="M298 726c130 0 207 -69 207 -176c0 -86 -45 -142 -121 -162v-2c92 -16 160 -73 160 -192c0 -126 -86 -204 -226 -204c-76 0 -126 24 -150 65h-2v-240h-88v662c0 163 76 249 220 249zM300 655c-94 0 -134 -56 -134 -176v-288c0 -78 44 -130 139 -130c93 0 149 52 149 141
c0 100 -64 144 -193 144h-16v75h16c107 0 158 45 158 121c0 70 -42 113 -119 113z" />
    <glyph glyph-name="gamma" unicode="&#x3b3;" horiz-adv-x="522" 
d="M417 508h91c-20 -194 -81 -331 -202 -501v-13c0 -49 -5 -130 -11 -179h-88c6 49 11 130 11 179c0 93 -34 249 -97 371c-34 65 -59 78 -89 78c-8 0 -16 -1 -23 -3v67c15 5 34 7 51 7c53 0 88 -20 129 -102c49 -98 81 -217 90 -306h2c80 133 122 248 136 402z" />
    <glyph glyph-name="delta" unicode="&#x3b4;" horiz-adv-x="566" 
d="M263 722c71 0 143 -10 209 -30v-78c-64 25 -136 38 -199 38c-59 0 -75 -16 -75 -39c0 -32 48 -58 130 -101c126 -67 196 -149 196 -285c0 -148 -96 -241 -241 -241s-242 93 -242 240c0 126 68 212 185 252v2c-78 48 -120 77 -120 138c0 59 38 104 157 104zM289 439
c-96 -32 -156 -102 -156 -213c0 -103 60 -168 150 -168c91 0 149 65 149 170c0 99 -48 162 -143 211z" />
    <glyph glyph-name="epsilon" unicode="&#x3b5;" horiz-adv-x="493" 
d="M244 522c124 0 202 -62 202 -167h-90c0 63 -39 95 -109 95c-61 0 -100 -27 -100 -78c0 -49 46 -81 117 -81h50v-69h-50c-84 0 -129 -29 -129 -86c0 -47 41 -78 112 -78c77 0 118 31 118 98h91c0 -109 -76 -170 -209 -170c-124 0 -202 56 -202 148c0 69 39 106 102 126v2
c-58 22 -89 56 -89 117c0 88 71 143 186 143z" />
    <glyph glyph-name="zeta" unicode="&#x3b6;" horiz-adv-x="453" 
d="M426 712v-68c-180 -106 -294 -244 -294 -407c0 -93 43 -137 162 -153c111 -14 146 -60 146 -131c0 -32 -9 -68 -25 -98h-75c13 26 19 53 19 77c0 44 -19 70 -103 79c-151 16 -215 87 -215 212c0 171 114 317 273 419v2h-247v68h359z" />
    <glyph glyph-name="eta" unicode="&#x3b7;" horiz-adv-x="587" 
d="M333 520c115 0 181 -71 181 -210v-495h-88v487c0 106 -43 146 -117 146c-72 0 -132 -55 -132 -156v-292h-88v359c0 66 -16 84 -46 84c-10 0 -17 -1 -25 -4v66c17 5 35 9 54 9c52 0 84 -22 95 -87h2c33 58 92 93 164 93z" />
    <glyph glyph-name="theta" unicode="&#x3b8;" horiz-adv-x="594" 
d="M296 725c161 0 255 -136 255 -369s-94 -369 -255 -369c-160 0 -253 136 -253 369s93 369 253 369zM296 655c-97 0 -156 -96 -163 -266h328c-7 170 -67 266 -165 266zM296 57c98 0 158 96 165 266h-328c7 -170 66 -266 163 -266z" />
    <glyph glyph-name="iota" unicode="&#x3b9;" horiz-adv-x="278" 
d="M161 508v-344c0 -68 19 -95 70 -95c13 0 27 2 36 5v-72c-15 -4 -38 -7 -55 -7c-97 0 -139 46 -139 160v353h88z" />
    <glyph glyph-name="kappa" unicode="&#x3ba;" horiz-adv-x="522" 
d="M414 0l-202 216l-47 -53v-163h-88v508h88v-239h2l106 122c85 97 131 122 201 122c12 0 26 -2 36 -5v-75c-7 2 -18 4 -27 4c-56 0 -101 -30 -186 -126l-30 -33l261 -278h-114z" />
    <glyph glyph-name="lambda" unicode="&#x3bb;" horiz-adv-x="564" 
d="M115 718c95 0 145 -43 206 -204l133 -350c31 -82 53 -98 84 -98c7 0 12 1 17 2v-68c-11 -3 -26 -5 -39 -5c-64 0 -100 22 -139 132l-105 280h-2c-34 -77 -68 -155 -102 -231l-78 -176h-96l234 508c-40 106 -72 138 -130 138c-18 0 -34 -3 -47 -8v70c17 7 37 10 64 10z
" />
    <glyph glyph-name="mu" unicode="&#x3bc;" horiz-adv-x="583" 
d="M499 508v-363c0 -62 14 -78 47 -78c8 0 16 1 24 3v-67c-18 -6 -37 -9 -60 -9c-56 0 -85 24 -93 82h-2c-24 -51 -78 -83 -142 -83c-50 0 -86 15 -107 42v-220h-88v693h88v-301c0 -106 42 -144 113 -144c72 0 132 53 132 155v290h88z" />
    <glyph glyph-name="nu" unicode="&#x3bd;" horiz-adv-x="511" 
d="M55 513c62 0 98 -35 127 -136l90 -299h2c106 206 132 298 132 390c0 13 -1 27 -3 40h87c3 -15 4 -29 4 -44c0 -111 -32 -202 -172 -464h-111l-112 351c-23 71 -41 91 -73 91c-7 0 -13 -1 -17 -2v65c12 5 29 8 46 8z" />
    <glyph glyph-name="xi" unicode="&#x3be;" horiz-adv-x="461" 
d="M442 644h-77c-130 0 -200 -48 -200 -131c0 -71 64 -105 148 -105h90v-68h-78c-137 0 -192 -56 -192 -135c0 -74 45 -108 168 -121c111 -11 146 -60 146 -131c0 -32 -9 -68 -25 -98h-75c13 26 19 53 19 77c0 44 -20 73 -109 80c-149 13 -216 76 -216 183
c0 91 48 154 148 177v2c-65 18 -107 65 -107 133c0 64 32 111 89 135v2h-110v68h381v-68z" />
    <glyph glyph-name="omicron" unicode="&#x3bf;" horiz-adv-x="565" 
d="M282 522c149 0 242 -102 242 -268s-93 -268 -242 -268s-241 102 -241 268s92 268 241 268zM282 450c-92 0 -149 -75 -149 -196s57 -196 149 -196c93 0 150 75 150 196s-57 196 -150 196z" />
    <glyph glyph-name="pi" unicode="&#x3c0;" horiz-adv-x="652" 
d="M633 438h-117v-281c0 -73 26 -92 69 -92c10 0 22 2 30 4v-67c-15 -5 -40 -8 -60 -8c-81 0 -127 38 -127 153v291h-225v-438h-88v438h-103v70h621v-70z" />
    <glyph glyph-name="rho" unicode="&#x3c1;" horiz-adv-x="578" 
d="M299 522c146 0 237 -103 237 -270c0 -162 -88 -263 -230 -263c-69 0 -118 26 -143 69h-2v-243h-88v439c0 164 89 268 226 268zM296 449c-85 0 -138 -74 -138 -195c0 -120 53 -193 138 -193c92 0 148 72 148 193c0 122 -56 195 -148 195z" />
    <glyph glyph-name="sigmafinal" unicode="&#x3c2;" horiz-adv-x="516" 
d="M272 522c138 0 214 -79 223 -199h-91c-7 76 -52 127 -132 127c-88 0 -142 -64 -142 -174c0 -108 48 -163 165 -178c114 -15 151 -66 151 -145c0 -32 -10 -68 -26 -98h-76c14 26 20 53 20 77c0 50 -20 81 -110 91c-145 17 -216 100 -216 245c0 160 89 254 234 254z" />
    <glyph glyph-name="sigma" unicode="&#x3c3;" horiz-adv-x="594" 
d="M582 440h-144v-2c53 -35 85 -101 85 -194c0 -159 -93 -258 -241 -258s-241 101 -241 262s93 260 241 260h300v-68zM282 441c-93 0 -148 -71 -148 -192c0 -120 55 -191 148 -191c96 0 150 71 150 191c0 121 -54 192 -150 192z" />
    <glyph glyph-name="tau" unicode="&#x3c4;" horiz-adv-x="467" 
d="M455 440h-185v-283c0 -73 26 -92 69 -92c10 0 22 2 30 4v-67c-15 -5 -40 -8 -60 -8c-81 0 -127 38 -127 153v293h-170v68h443v-68z" />
    <glyph glyph-name="upsilon" unicode="&#x3c5;" horiz-adv-x="577" 
d="M72 514c71 0 105 -32 105 -136v-194c0 -90 42 -125 119 -125c95 0 136 70 136 194c0 91 -12 180 -37 255h86c25 -76 39 -167 39 -259c0 -167 -71 -263 -223 -263c-135 0 -209 57 -209 192v182c0 65 -13 81 -46 81c-10 0 -17 -1 -25 -3v67c18 6 36 9 55 9z" />
    <glyph glyph-name="phi" unicode="&#x3c6;" horiz-adv-x="755" 
d="M714 254c0 -163 -113 -263 -294 -268v-171h-85v171c-181 4 -294 105 -294 268s113 264 294 268v140h85v-140c181 -5 294 -105 294 -268zM131 254c0 -123 75 -196 204 -199v398c-129 -3 -204 -76 -204 -199zM420 453v-398c130 4 203 76 203 199s-73 195 -203 199z" />
    <glyph glyph-name="chi" unicode="&#x3c7;" horiz-adv-x="572" 
d="M69 518c76 0 114 -27 153 -118l69 -162h2l168 270h99l-221 -348l84 -191c34 -77 59 -89 100 -89c13 0 26 2 38 4v-66c-19 -6 -41 -9 -61 -9c-70 0 -109 26 -150 120l-66 154h-2l-173 -268h-99l228 344l-88 198c-33 75 -56 90 -103 90c-14 0 -27 -2 -38 -6v66
c16 7 40 11 60 11z" />
    <glyph glyph-name="psi" unicode="&#x3c8;" horiz-adv-x="768" 
d="M710 252c0 -161 -87 -255 -277 -262v-175h-88v175c-175 5 -272 73 -272 228v290h88v-279c0 -113 64 -162 184 -168v601h88v-600c131 6 189 77 189 196c0 89 -13 177 -40 250h87c27 -75 41 -164 41 -256z" />
    <glyph glyph-name="omega" unicode="&#x3c9;" horiz-adv-x="781" 
d="M567 508h91c43 -84 65 -183 65 -284c0 -150 -56 -237 -182 -237c-81 0 -129 33 -150 95h-1c-21 -62 -69 -95 -150 -95c-126 0 -182 87 -182 237c0 101 22 200 65 284h92c-43 -81 -66 -177 -66 -275c0 -112 32 -175 106 -175c60 0 92 39 92 119v205h88v-205
c0 -80 31 -119 91 -119c74 0 107 63 107 175c0 98 -23 194 -66 275z" />
    <glyph glyph-name="alphatonos" unicode="&#x3ac;" horiz-adv-x="587" 
d="M313 572h-69l41 160h89zM254 521c70 0 130 -35 158 -91h2c1 24 4 54 8 78h87c-7 -43 -11 -96 -11 -180v-184c0 -62 13 -79 47 -79c8 0 16 1 24 4v-66c-18 -6 -37 -9 -60 -9c-57 0 -86 25 -95 85h-2c-28 -57 -89 -91 -159 -91c-129 0 -212 105 -212 267s83 266 213 266z
M276 450c-87 0 -143 -76 -143 -195s56 -196 143 -196c84 0 139 75 139 196c0 120 -55 195 -139 195z" />
    <glyph glyph-name="iotatonos" unicode="&#x3af;" horiz-adv-x="278" 
d="M151 572h-69l41 160h89zM161 508v-344c0 -68 19 -95 70 -95c13 0 27 2 36 5v-72c-15 -4 -38 -7 -55 -7c-97 0 -139 46 -139 160v353h88z" />
    <glyph glyph-name="iotadieresis" unicode="&#x3ca;" horiz-adv-x="278" 
d="M61 613h-82v99h82v-99zM256 613h-82v99h82v-99zM161 508v-344c0 -68 19 -95 70 -95c13 0 27 2 36 5v-72c-15 -4 -38 -7 -55 -7c-97 0 -139 46 -139 160v353h88z" />
    <glyph glyph-name="iotadieresistonos" unicode="&#x390;" horiz-adv-x="278" 
d="M129 572h-64l36 147h77zM17 586h-78v100h78v-100zM297 586h-78v100h78v-100zM161 508v-344c0 -68 19 -95 70 -95c13 0 27 2 36 5v-72c-15 -4 -38 -7 -55 -7c-97 0 -139 46 -139 160v353h88z" />
    <glyph glyph-name="upsilontonos" unicode="&#x3cd;" horiz-adv-x="577" 
d="M308 572h-69l41 160h89zM72 514c71 0 105 -32 105 -136v-194c0 -90 42 -125 119 -125c95 0 136 70 136 194c0 91 -12 180 -37 255h86c25 -76 39 -167 39 -259c0 -167 -71 -263 -223 -263c-135 0 -209 57 -209 192v182c0 65 -13 81 -46 81c-10 0 -17 -1 -25 -3v67
c18 6 36 9 55 9z" />
    <glyph glyph-name="upsilondieresis" unicode="&#x3cb;" horiz-adv-x="577" 
d="M218 613h-82v99h82v-99zM413 613h-82v99h82v-99zM72 514c71 0 105 -32 105 -136v-194c0 -90 42 -125 119 -125c95 0 136 70 136 194c0 91 -12 180 -37 255h86c25 -76 39 -167 39 -259c0 -167 -71 -263 -223 -263c-135 0 -209 57 -209 192v182c0 65 -13 81 -46 81
c-10 0 -17 -1 -25 -3v67c18 6 36 9 55 9z" />
    <glyph glyph-name="upsilondieresistonos" unicode="&#x3b0;" horiz-adv-x="577" 
d="M286 572h-64l36 147h77zM174 586h-78v100h78v-100zM454 586h-78v100h78v-100zM72 514c71 0 105 -32 105 -136v-194c0 -90 42 -125 119 -125c95 0 136 70 136 194c0 91 -12 180 -37 255h86c25 -76 39 -167 39 -259c0 -167 -71 -263 -223 -263c-135 0 -209 57 -209 192v182
c0 65 -13 81 -46 81c-10 0 -17 -1 -25 -3v67c18 6 36 9 55 9z" />
    <glyph glyph-name="omicrontonos" unicode="&#x3cc;" horiz-adv-x="565" 
d="M316 572h-69l41 160h89zM282 522c149 0 242 -102 242 -268s-93 -268 -242 -268s-241 102 -241 268s92 268 241 268zM282 450c-92 0 -149 -75 -149 -196s57 -196 149 -196c93 0 150 75 150 196s-57 196 -150 196z" />
    <glyph glyph-name="omegatonos" unicode="&#x3ce;" horiz-adv-x="781" 
d="M424 572h-69l41 160h89zM567 508h91c43 -84 65 -183 65 -284c0 -150 -56 -237 -182 -237c-81 0 -129 33 -150 95h-1c-21 -62 -69 -95 -150 -95c-126 0 -182 87 -182 237c0 101 22 200 65 284h92c-43 -81 -66 -177 -66 -275c0 -112 32 -175 106 -175c60 0 92 39 92 119
v205h88v-205c0 -80 31 -119 91 -119c74 0 107 63 107 175c0 98 -23 194 -66 275z" />
    <glyph glyph-name="epsilontonos" unicode="&#x3ad;" horiz-adv-x="493" 
d="M278 572h-69l41 160h89zM244 522c124 0 202 -62 202 -167h-90c0 63 -39 95 -109 95c-61 0 -100 -27 -100 -78c0 -49 46 -81 117 -81h50v-69h-50c-84 0 -129 -29 -129 -86c0 -47 41 -78 112 -78c77 0 118 31 118 98h91c0 -109 -76 -170 -209 -170c-124 0 -202 56 -202 148
c0 69 39 106 102 126v2c-58 22 -89 56 -89 117c0 88 71 143 186 143z" />
    <glyph glyph-name="etatonos" unicode="&#x3ae;" horiz-adv-x="587" 
d="M295 572h-69l41 160h89zM333 520c115 0 181 -71 181 -210v-495h-88v487c0 106 -43 146 -117 146c-72 0 -132 -55 -132 -156v-292h-88v359c0 66 -16 84 -46 84c-10 0 -17 -1 -25 -4v66c17 5 35 9 54 9c52 0 84 -22 95 -87h2c33 58 92 93 164 93z" />
    <glyph glyph-name="ninferior" unicode="&#x2099;" horiz-adv-x="422" 
d="M238 192c85 0 133 -50 133 -147v-217h-76v211c0 69 -28 92 -77 92c-48 0 -88 -34 -88 -104v-199h-75v356h72v-44h2c22 30 61 52 109 52z" />
    <glyph glyph-name="zero.lf" horiz-adv-x="590" 
d="M295 688c158 0 244 -124 244 -351s-86 -351 -244 -351s-244 124 -244 351s86 351 244 351zM295 607c-97 0 -149 -94 -149 -270c0 -177 52 -272 149 -272c96 0 148 95 148 272c0 176 -52 270 -148 270z" />
    <glyph glyph-name="one.lf" horiz-adv-x="360" 
d="M257 0h-91v491h-151v70c105 0 151 31 164 113h78v-674z" />
    <glyph glyph-name="two.lf" horiz-adv-x="570" 
d="M288 688c130 0 216 -75 216 -188c0 -118 -78 -173 -186 -236c-134 -78 -161 -122 -162 -185h363v-79h-464c-1 7 -1 15 -1 20c0 128 32 201 198 298c103 60 156 97 156 180c0 65 -46 110 -120 110c-86 0 -127 -49 -132 -132h-93c5 134 92 212 225 212z" />
    <glyph glyph-name="three.lf" horiz-adv-x="563" 
d="M277 688c136 0 221 -73 221 -184c0 -80 -38 -128 -117 -157v-2c87 -29 128 -81 128 -168c0 -114 -94 -191 -231 -191c-149 0 -233 81 -233 217h93c0 -90 49 -138 140 -138c82 0 137 47 137 115c0 79 -56 122 -160 122h-27v77h27c93 0 150 46 150 117
c0 68 -52 113 -132 113c-82 0 -129 -44 -129 -134h-93c0 134 87 213 226 213z" />
    <glyph glyph-name="four.lf" horiz-adv-x="550" 
d="M534 174h-110v-174h-91v174h-318v83l286 417h123v-424h110v-76zM103 250h231v92c0 83 1 167 3 251h-2c-51 -79 -102 -155 -155 -232z" />
    <glyph glyph-name="five.lf" horiz-adv-x="562" 
d="M478 596h-305l-20 -209h2c31 36 82 56 136 56c132 0 218 -87 218 -222c0 -143 -93 -235 -236 -235c-132 0 -219 73 -219 193h94c1 -72 54 -113 125 -113c87 0 141 57 141 152c0 93 -53 147 -136 147c-66 0 -112 -34 -128 -95l-91 6l37 398h382v-78z" />
    <glyph glyph-name="six.lf" horiz-adv-x="566" 
d="M303 688c120 0 196 -71 207 -187h-94c-11 70 -51 107 -116 107c-95 0 -158 -78 -162 -255h2c38 55 95 86 166 86c128 0 214 -89 214 -221c0 -138 -94 -232 -231 -232c-152 0 -238 108 -238 325c0 246 92 377 252 377zM291 364c-81 0 -136 -61 -136 -148
c0 -92 51 -150 134 -150c81 0 135 59 135 150c0 88 -53 148 -133 148z" />
    <glyph glyph-name="seven.lf" horiz-adv-x="470" 
d="M454 674v-81c-101 -148 -189 -351 -235 -593h-101c60 271 156 468 242 594h-345v80h439z" />
    <glyph glyph-name="eight.lf" horiz-adv-x="567" 
d="M283 688c130 0 223 -75 223 -185c0 -73 -46 -126 -118 -153v-2c83 -25 131 -83 131 -166c0 -118 -96 -196 -236 -196s-235 78 -235 196c0 83 48 141 131 166v2c-72 27 -118 80 -118 153c0 110 93 185 222 185zM283 609c-78 0 -130 -43 -130 -109c0 -70 50 -114 130 -114
c81 0 131 44 131 114c0 66 -53 109 -131 109zM283 308c-84 0 -142 -49 -142 -120c0 -74 57 -122 142 -122c86 0 143 48 143 122c0 71 -58 120 -143 120z" />
    <glyph glyph-name="nine.lf" horiz-adv-x="566" 
d="M263 -14c-120 0 -196 71 -207 187h94c11 -70 51 -107 116 -107c95 0 158 78 162 255h-2c-38 -55 -95 -86 -166 -86c-128 0 -214 89 -214 221c0 138 94 232 231 232c152 0 238 -108 238 -325c0 -246 -93 -377 -252 -377zM275 310c81 0 136 61 136 148
c0 92 -51 150 -134 150c-81 0 -135 -59 -135 -150c0 -88 53 -148 133 -148z" />
    <glyph glyph-name="fraction" unicode="&#x2044;" horiz-adv-x="147" 
d="M-82 0h-73l384 674h74z" />
    <glyph glyph-name="onehalf" unicode="&#xbd;" horiz-adv-x="755" 
d="M180 270h-77v278h-94v58c65 0 96 20 105 68h66v-404zM157 0h-73l384 674h74zM572 413c87 0 141 -47 141 -116c0 -71 -52 -109 -116 -143c-77 -40 -95 -62 -96 -91h223v-63h-304c-1 5 -1 11 -1 16c0 82 21 128 124 184c58 32 93 52 93 97c0 31 -24 53 -64 53
c-48 0 -69 -25 -70 -69h-77c2 84 61 132 147 132z" />
    <glyph glyph-name="onequarter" unicode="&#xbc;" horiz-adv-x="721" 
d="M103 548h-94v58c65 0 96 20 105 68h66v-404h-77v278zM542 674l-385 -674h-73l384 674h74zM711 95h-66v-95h-75v95h-195v66l171 243h99v-246h66v-63zM446 158h126v49c0 44 1 89 2 133h-2c-27 -42 -55 -83 -84 -123z" />
    <glyph glyph-name="threequarters" unicode="&#xbe;" horiz-adv-x="847" 
d="M331 378c0 -71 -59 -117 -150 -117c-98 0 -155 49 -155 135h76c0 -50 27 -72 79 -72c45 0 74 22 74 57c0 41 -31 63 -91 63h-13v61h13c52 0 86 23 86 60c0 34 -27 55 -71 55c-48 0 -73 -22 -73 -68h-75c0 83 57 131 149 131c90 0 145 -44 145 -112c0 -45 -20 -72 -68 -92
v-2c53 -19 74 -49 74 -99zM667 674l-385 -674h-73l384 674h74zM837 95h-66v-95h-75v95h-195v66l171 243h99v-246h66v-63zM572 158h126v49c0 44 1 89 2 133h-2c-27 -42 -55 -83 -84 -123z" />
    <glyph glyph-name="oneeighth" unicode="&#x215b;" horiz-adv-x="752" 
d="M180 270h-77v278h-94v58c65 0 96 20 105 68h66v-404zM157 0h-73l384 674h74zM568 413c86 0 146 -46 146 -114c0 -41 -25 -72 -68 -89v-1c51 -16 77 -50 77 -98c0 -73 -62 -120 -155 -120s-153 47 -153 120c0 48 26 82 77 98v1c-44 17 -69 48 -69 89c0 68 60 114 145 114z
M568 351c-43 0 -72 -21 -72 -54c0 -37 29 -59 72 -59c45 0 73 22 73 59c0 33 -29 54 -73 54zM568 177c-46 0 -77 -25 -77 -62c0 -38 30 -62 77 -62s79 24 79 62c0 37 -32 62 -79 62z" />
    <glyph glyph-name="threeeighths" unicode="&#x215c;" horiz-adv-x="877" 
d="M180 683c90 0 145 -44 145 -112c0 -45 -20 -72 -68 -92v-2c53 -19 74 -49 74 -99c0 -71 -59 -117 -150 -117c-98 0 -155 49 -155 135h76c0 -50 27 -72 79 -72c45 0 74 22 74 57c0 41 -31 63 -91 63h-13v61h13c52 0 86 23 86 60c0 34 -27 55 -71 55c-48 0 -73 -22 -73 -68
h-75c0 83 57 131 149 131zM282 0h-73l384 674h74zM693 413c86 0 146 -46 146 -114c0 -41 -25 -72 -68 -89v-1c51 -16 77 -50 77 -98c0 -73 -62 -120 -155 -120s-153 47 -153 120c0 48 26 82 77 98v1c-44 17 -69 48 -69 89c0 68 60 114 145 114zM693 351
c-43 0 -72 -21 -72 -54c0 -37 29 -59 72 -59c45 0 73 22 73 59c0 33 -29 54 -73 54zM693 177c-46 0 -77 -25 -77 -62c0 -38 30 -62 77 -62s79 24 79 62c0 37 -32 62 -79 62z" />
    <glyph glyph-name="fiveeighths" unicode="&#x215d;" horiz-adv-x="877" 
d="M311 610h-188l-10 -99h2c18 18 47 28 80 28c83 0 137 -54 137 -137c0 -86 -60 -141 -152 -141c-88 0 -148 45 -148 120h77c1 -37 30 -58 70 -58c48 0 77 30 77 79c0 47 -29 76 -74 76c-37 0 -63 -18 -71 -50l-74 5l22 241h252v-64zM283 0h-73l384 674h74zM694 413
c86 0 146 -46 146 -114c0 -41 -25 -72 -68 -89v-1c51 -16 77 -50 77 -98c0 -73 -62 -120 -155 -120s-153 47 -153 120c0 48 26 82 77 98v1c-44 17 -69 48 -69 89c0 68 60 114 145 114zM694 351c-43 0 -72 -21 -72 -54c0 -37 29 -59 72 -59c45 0 73 22 73 59
c0 33 -29 54 -73 54zM694 177c-46 0 -77 -25 -77 -62c0 -38 30 -62 77 -62s79 24 79 62c0 37 -32 62 -79 62z" />
    <glyph glyph-name="seveneighths" unicode="&#x215e;" horiz-adv-x="782" 
d="M310 674v-64c-63 -84 -116 -208 -143 -340h-81c36 151 94 269 146 340h-223v64h301zM188 0h-73l384 674h74zM599 413c86 0 146 -46 146 -114c0 -41 -25 -72 -68 -89v-1c51 -16 77 -50 77 -98c0 -73 -62 -120 -155 -120s-153 47 -153 120c0 48 26 82 77 98v1
c-44 17 -69 48 -69 89c0 68 60 114 145 114zM599 351c-43 0 -72 -21 -72 -54c0 -37 29 -59 72 -59c45 0 73 22 73 59c0 33 -29 54 -73 54zM599 177c-46 0 -77 -25 -77 -62c0 -38 30 -62 77 -62s79 24 79 62c0 37 -32 62 -79 62z" />
    <glyph glyph-name="zero.dnom" horiz-adv-x="379" 
d="M190 413c103 0 159 -74 159 -211s-56 -211 -159 -211s-160 74 -160 211s57 211 160 211zM190 349c-53 0 -82 -52 -82 -147s29 -147 82 -147c54 0 82 52 82 147s-28 147 -82 147z" />
    <glyph glyph-name="one.dnom" horiz-adv-x="239" 
d="M180 0h-77v278h-94v58c65 0 96 20 105 68h66v-404z" />
    <glyph glyph-name="two.dnom" horiz-adv-x="369" 
d="M186 413c87 0 141 -47 141 -116c0 -71 -52 -109 -116 -143c-77 -40 -95 -62 -96 -91h223v-63h-304c-1 5 -1 11 -1 16c0 82 21 128 124 184c58 32 93 52 93 97c0 31 -24 53 -64 53c-48 0 -69 -25 -70 -69h-77c2 84 61 132 147 132z" />
    <glyph glyph-name="three.dnom" horiz-adv-x="364" 
d="M181 413c90 0 145 -44 145 -112c0 -45 -20 -72 -68 -92v-2c53 -19 74 -49 74 -99c0 -71 -59 -117 -150 -117c-98 0 -155 49 -155 135h76c0 -50 27 -72 79 -72c45 0 74 22 74 57c0 41 -31 63 -91 63h-13v61h13c52 0 86 23 86 60c0 34 -27 55 -71 55c-48 0 -73 -22 -73 -68
h-75c0 83 57 131 149 131z" />
    <glyph glyph-name="four.dnom" horiz-adv-x="355" 
d="M345 95h-66v-95h-75v95h-195v66l171 243h99v-246h66v-63zM80 158h126v49c0 44 1 89 2 133h-2c-27 -42 -55 -83 -84 -123z" />
    <glyph glyph-name="five.dnom" horiz-adv-x="365" 
d="M311 340h-188l-10 -99h2c18 18 47 28 80 28c83 0 137 -54 137 -137c0 -86 -60 -141 -152 -141c-88 0 -148 45 -148 120h77c1 -37 30 -58 70 -58c48 0 77 30 77 79c0 47 -29 76 -74 76c-37 0 -63 -18 -71 -50l-74 5l22 241h252v-64z" />
    <glyph glyph-name="six.dnom" horiz-adv-x="365" 
d="M194 413c80 0 132 -44 138 -119h-77c-6 39 -29 57 -64 57c-50 0 -82 -38 -86 -129h1c24 28 55 42 98 42c79 0 133 -54 133 -133c0 -83 -61 -140 -150 -140c-100 0 -157 67 -157 198c0 144 60 224 164 224zM189 203c-45 0 -75 -31 -75 -75c0 -48 30 -74 73 -74
c44 0 74 29 74 75c0 44 -29 74 -72 74z" />
    <glyph glyph-name="seven.dnom" horiz-adv-x="320" 
d="M310 404v-64c-63 -84 -116 -208 -143 -340h-81c36 151 94 269 146 340h-223v64h301z" />
    <glyph glyph-name="eight.dnom" horiz-adv-x="365" 
d="M182 413c86 0 146 -46 146 -114c0 -41 -25 -72 -68 -89v-1c51 -16 77 -50 77 -98c0 -73 -62 -120 -155 -120s-153 47 -153 120c0 48 26 82 77 98v1c-44 17 -69 48 -69 89c0 68 60 114 145 114zM182 351c-43 0 -72 -21 -72 -54c0 -37 29 -59 72 -59c45 0 73 22 73 59
c0 33 -29 54 -73 54zM182 177c-46 0 -77 -25 -77 -62c0 -38 30 -62 77 -62s79 24 79 62c0 37 -32 62 -79 62z" />
    <glyph glyph-name="nine.dnom" horiz-adv-x="365" 
d="M171 -8c-80 0 -132 44 -138 119h77c6 -39 29 -57 63 -57c51 0 83 38 87 129h-1c-24 -28 -55 -42 -98 -42c-79 0 -133 54 -133 133c0 83 61 140 150 140c100 0 157 -67 157 -198c0 -144 -60 -224 -164 -224zM176 202c45 0 75 31 75 75c0 48 -30 74 -73 74
c-44 0 -74 -29 -74 -75c0 -44 29 -74 72 -74z" />
    <glyph glyph-name="zero.numr" horiz-adv-x="379" 
d="M190 683c103 0 159 -74 159 -211s-56 -211 -159 -211s-160 74 -160 211s57 211 160 211zM190 619c-53 0 -82 -52 -82 -147s29 -147 82 -147c54 0 82 52 82 147s-28 147 -82 147z" />
    <glyph glyph-name="one.numr" horiz-adv-x="239" 
d="M180 270h-77v278h-94v58c65 0 96 20 105 68h66v-404z" />
    <glyph glyph-name="two.numr" horiz-adv-x="369" 
d="M185 683c87 0 141 -47 141 -116c0 -71 -52 -109 -116 -143c-77 -40 -95 -62 -96 -91h223v-63h-304c-1 5 -1 11 -1 16c0 82 21 128 124 184c58 32 93 52 93 97c0 31 -24 53 -64 53c-48 0 -69 -25 -70 -69h-77c2 84 61 132 147 132z" />
    <glyph glyph-name="three.numr" horiz-adv-x="364" 
d="M180 683c90 0 145 -44 145 -112c0 -45 -20 -72 -68 -92v-2c53 -19 74 -49 74 -99c0 -71 -59 -117 -150 -117c-98 0 -155 49 -155 135h76c0 -50 27 -72 79 -72c45 0 74 22 74 57c0 41 -31 63 -91 63h-13v61h13c52 0 86 23 86 60c0 34 -27 55 -71 55c-48 0 -73 -22 -73 -68
h-75c0 83 57 131 149 131z" />
    <glyph glyph-name="four.numr" horiz-adv-x="355" 
d="M345 365h-66v-95h-75v95h-195v66l171 243h99v-246h66v-63zM80 428h126v49c0 44 1 89 2 133h-2c-27 -42 -55 -83 -84 -123z" />
    <glyph glyph-name="five.numr" horiz-adv-x="365" 
d="M311 610h-188l-10 -99h2c18 18 47 28 80 28c83 0 137 -54 137 -137c0 -86 -60 -141 -152 -141c-88 0 -148 45 -148 120h77c1 -37 30 -58 70 -58c48 0 77 30 77 79c0 47 -29 76 -74 76c-37 0 -63 -18 -71 -50l-74 5l22 241h252v-64z" />
    <glyph glyph-name="six.numr" horiz-adv-x="365" 
d="M194 683c80 0 132 -44 138 -119h-77c-6 39 -29 57 -64 57c-50 0 -82 -38 -86 -129h1c24 28 55 42 98 42c79 0 133 -54 133 -133c0 -83 -61 -140 -150 -140c-100 0 -157 67 -157 198c0 144 60 224 164 224zM189 473c-45 0 -75 -31 -75 -75c0 -48 30 -74 73 -74
c44 0 74 29 74 75c0 44 -29 74 -72 74z" />
    <glyph glyph-name="seven.numr" horiz-adv-x="320" 
d="M310 674v-64c-63 -84 -116 -208 -143 -340h-81c36 151 94 269 146 340h-223v64h301z" />
    <glyph glyph-name="eight.numr" horiz-adv-x="365" 
d="M182 683c86 0 146 -46 146 -114c0 -41 -25 -72 -68 -89v-1c51 -16 77 -50 77 -98c0 -73 -62 -120 -155 -120s-153 47 -153 120c0 48 26 82 77 98v1c-44 17 -69 48 -69 89c0 68 60 114 145 114zM182 621c-43 0 -72 -21 -72 -54c0 -37 29 -59 72 -59c45 0 73 22 73 59
c0 33 -29 54 -73 54zM182 447c-46 0 -77 -25 -77 -62c0 -38 30 -62 77 -62s79 24 79 62c0 37 -32 62 -79 62z" />
    <glyph glyph-name="nine.numr" horiz-adv-x="365" 
d="M171 262c-80 0 -132 44 -138 119h77c6 -39 29 -57 63 -57c51 0 83 38 87 129h-1c-24 -28 -55 -42 -98 -42c-79 0 -133 54 -133 133c0 83 61 140 150 140c100 0 157 -67 157 -198c0 -144 -60 -224 -164 -224zM176 472c45 0 75 31 75 75c0 48 -30 74 -73 74
c-44 0 -74 -29 -74 -75c0 -44 29 -74 72 -74z" />
    <glyph glyph-name="zeroinferior" unicode="&#x2080;" horiz-adv-x="434" 
d="M216 310c117 0 181 -87 181 -246c0 -158 -64 -246 -181 -246s-181 88 -181 246c0 159 64 246 181 246zM216 244c-64 0 -100 -64 -100 -180c0 -117 36 -182 100 -182s99 65 99 182c0 116 -35 180 -99 180z" />
    <glyph glyph-name="oneinferior" unicode="&#x2081;" horiz-adv-x="274" 
d="M201 -172h-79v332h-112v60c79 0 115 22 124 80h67v-472z" />
    <glyph glyph-name="twoinferior" unicode="&#x2082;" horiz-adv-x="420" 
d="M212 310c98 0 162 -55 162 -134c0 -83 -59 -124 -136 -165c-92 -50 -112 -78 -113 -117h260v-66h-346c-1 6 -1 12 -1 17c0 93 24 146 143 212c71 38 110 64 110 118c0 41 -30 69 -79 69c-57 0 -84 -32 -87 -86h-81c3 96 69 152 168 152z" />
    <glyph glyph-name="threeinferior" unicode="&#x2083;" horiz-adv-x="414" 
d="M205 310c103 0 165 -52 165 -130c0 -54 -25 -87 -82 -109v-2c62 -22 89 -56 89 -115c0 -81 -69 -136 -171 -136c-112 0 -175 57 -175 155h80c0 -60 33 -90 95 -90c54 0 91 30 91 73c0 52 -38 79 -109 79h-17v63h17c62 0 102 29 102 75c0 44 -34 71 -87 71
c-57 0 -87 -28 -87 -87h-80c0 97 65 153 169 153z" />
    <glyph glyph-name="fourinferior" unicode="&#x2084;" horiz-adv-x="406" 
d="M394 -57h-81v-115h-76v115h-227v69l201 288h102v-293h81v-64zM84 7h154v61c0 53 1 108 2 163h-1c-34 -51 -68 -100 -103 -150z" />
    <glyph glyph-name="fiveinferior" unicode="&#x2085;" horiz-adv-x="414" 
d="M354 234h-219l-12 -129h2c22 23 59 35 94 35c96 0 158 -61 158 -155c0 -102 -68 -167 -174 -167c-99 0 -165 52 -165 138h80c1 -46 37 -73 85 -73c58 0 93 38 93 98s-35 96 -90 96c-45 0 -75 -24 -86 -62l-78 4l27 281h285v-66z" />
    <glyph glyph-name="sixinferior" unicode="&#x2086;" horiz-adv-x="417" 
d="M220 310c91 0 149 -51 157 -135h-81c-8 46 -34 70 -78 70c-64 0 -103 -51 -108 -163h2c26 34 64 54 117 54c91 0 154 -62 154 -155c0 -97 -70 -163 -171 -163c-113 0 -177 77 -177 229c0 170 69 263 185 263zM214 73c-55 0 -91 -39 -91 -94c0 -59 35 -96 90 -96
c53 0 90 39 90 97c0 55 -35 93 -89 93z" />
    <glyph glyph-name="seveninferior" unicode="&#x2087;" horiz-adv-x="366" 
d="M354 300v-67c-74 -101 -137 -244 -168 -405h-88c43 181 112 318 175 404h-263v68h344z" />
    <glyph glyph-name="eightinferior" unicode="&#x2088;" horiz-adv-x="417" 
d="M208 310c97 0 165 -54 165 -131c0 -49 -31 -85 -82 -106v-2c59 -18 92 -57 92 -114c0 -84 -70 -139 -175 -139s-174 55 -174 139c0 57 32 96 92 114v2c-51 21 -83 57 -83 106c0 77 68 131 165 131zM208 245c-52 0 -88 -27 -88 -69c0 -45 35 -74 88 -74c54 0 88 29 88 74
c0 42 -36 69 -88 69zM208 39c-56 0 -95 -31 -95 -78c0 -48 38 -78 95 -78s95 30 95 78c0 47 -38 78 -95 78z" />
    <glyph glyph-name="nineinferior" unicode="&#x2089;" horiz-adv-x="417" 
d="M195 -182c-91 0 -148 51 -156 135h81c7 -46 33 -70 77 -70c64 0 104 51 108 163h-2c-25 -34 -63 -54 -116 -54c-91 0 -155 62 -155 155c0 97 70 163 171 163c113 0 178 -77 178 -229c0 -170 -69 -263 -186 -263zM202 55c54 0 91 39 91 94c0 59 -35 96 -90 96
c-53 0 -90 -39 -90 -97c0 -55 35 -93 89 -93z" />
    <glyph glyph-name="zerosuperior" unicode="&#x2070;" horiz-adv-x="434" 
d="M217 812c117 0 181 -87 181 -246c0 -158 -64 -246 -181 -246s-181 88 -181 246c0 159 64 246 181 246zM217 746c-64 0 -100 -64 -100 -180c0 -117 36 -182 100 -182s99 65 99 182c0 116 -35 180 -99 180z" />
    <glyph glyph-name="onesuperior" unicode="&#xb9;" horiz-adv-x="274" 
d="M202 330h-79v332h-112v60c79 0 115 22 124 80h67v-472z" />
    <glyph glyph-name="twosuperior" unicode="&#xb2;" horiz-adv-x="420" 
d="M212 812c98 0 162 -55 162 -134c0 -83 -59 -124 -136 -165c-92 -50 -112 -78 -113 -117h260v-66h-346c-1 6 -1 12 -1 17c0 93 24 146 143 212c71 38 110 64 110 118c0 41 -30 69 -79 69c-57 0 -84 -32 -87 -86h-81c3 96 69 152 168 152z" />
    <glyph glyph-name="threesuperior" unicode="&#xb3;" horiz-adv-x="414" 
d="M205 812c103 0 165 -52 165 -130c0 -54 -25 -87 -82 -109v-2c62 -22 89 -56 89 -115c0 -81 -69 -136 -171 -136c-112 0 -175 57 -175 155h80c0 -60 33 -90 95 -90c54 0 91 30 91 73c0 52 -38 79 -109 79h-17v63h17c62 0 102 29 102 75c0 44 -34 71 -87 71
c-57 0 -87 -28 -87 -87h-80c0 97 65 153 169 153z" />
    <glyph glyph-name="foursuperior" unicode="&#x2074;" horiz-adv-x="406" 
d="M395 445h-81v-115h-76v115h-227v69l201 288h102v-293h81v-64zM85 509h154v61c0 53 1 108 2 163h-1c-34 -51 -68 -100 -103 -150z" />
    <glyph glyph-name="fivesuperior" unicode="&#x2075;" horiz-adv-x="414" 
d="M354 736h-219l-12 -129h2c22 23 59 35 94 35c96 0 158 -61 158 -155c0 -102 -68 -167 -174 -167c-99 0 -165 52 -165 138h80c1 -46 37 -73 85 -73c58 0 93 38 93 98s-35 96 -90 96c-45 0 -75 -24 -86 -62l-78 4l27 281h285v-66z" />
    <glyph glyph-name="sixsuperior" unicode="&#x2076;" horiz-adv-x="417" 
d="M221 812c91 0 149 -51 157 -135h-81c-8 46 -34 70 -78 70c-64 0 -103 -51 -108 -163h2c26 34 64 54 117 54c91 0 154 -62 154 -155c0 -97 -70 -163 -171 -163c-113 0 -177 77 -177 229c0 170 69 263 185 263zM215 575c-55 0 -91 -39 -91 -94c0 -59 35 -96 90 -96
c53 0 90 39 90 97c0 55 -35 93 -89 93z" />
    <glyph glyph-name="sevensuperior" unicode="&#x2077;" horiz-adv-x="366" 
d="M355 802v-67c-74 -101 -137 -244 -168 -405h-88c43 181 112 318 175 404h-263v68h344z" />
    <glyph glyph-name="eightsuperior" unicode="&#x2078;" horiz-adv-x="417" 
d="M208 812c97 0 165 -54 165 -131c0 -49 -31 -85 -82 -106v-2c59 -18 92 -57 92 -114c0 -84 -70 -139 -175 -139s-174 55 -174 139c0 57 32 96 92 114v2c-51 21 -83 57 -83 106c0 77 68 131 165 131zM208 747c-52 0 -88 -27 -88 -69c0 -45 35 -74 88 -74c54 0 88 29 88 74
c0 42 -36 69 -88 69zM208 541c-56 0 -95 -31 -95 -78c0 -48 38 -78 95 -78s95 30 95 78c0 47 -38 78 -95 78z" />
    <glyph glyph-name="ninesuperior" unicode="&#x2079;" horiz-adv-x="417" 
d="M195 320c-91 0 -148 51 -156 135h81c7 -46 33 -70 77 -70c64 0 104 51 108 163h-2c-25 -34 -63 -54 -116 -54c-91 0 -155 62 -155 155c0 97 70 163 171 163c113 0 178 -77 178 -229c0 -170 -69 -263 -186 -263zM202 557c54 0 91 39 91 94c0 59 -35 96 -90 96
c-53 0 -90 -39 -90 -97c0 -55 35 -93 89 -93z" />
    <glyph glyph-name="zero.smcp" horiz-adv-x="478" 
d="M239 560c134 0 209 -102 209 -286s-75 -286 -209 -286s-208 102 -208 286s74 286 208 286zM239 483c-73 0 -114 -74 -114 -209c0 -136 41 -210 114 -210c74 0 114 74 114 210c0 135 -40 209 -114 209z" />
    <glyph glyph-name="one.smcp" horiz-adv-x="478" 
d="M304 0h-92v386h-128v69c90 0 131 26 141 93h79v-548z" />
    <glyph glyph-name="two.smcp" horiz-adv-x="478" 
d="M238 560c112 0 185 -64 185 -157c0 -95 -67 -143 -155 -191c-106 -58 -129 -90 -130 -135h299v-77h-399c-1 6 -1 14 -1 20c0 108 28 169 166 246c80 45 126 75 126 137c0 47 -35 80 -91 80c-65 0 -97 -37 -100 -100h-93c3 112 79 177 193 177z" />
    <glyph glyph-name="three.smcp" horiz-adv-x="478" 
d="M236 560c117 0 189 -61 189 -151c0 -63 -28 -101 -94 -126v-2c72 -25 103 -66 103 -135c0 -94 -80 -158 -198 -158c-128 0 -201 67 -201 181h93c0 -71 38 -105 108 -105c63 0 104 34 104 85c0 59 -43 91 -125 91h-19v74h20c72 0 117 33 117 86c0 51 -39 84 -100 84
c-64 0 -100 -33 -100 -101h-92c0 111 75 177 195 177z" />
    <glyph glyph-name="four.smcp" horiz-adv-x="478" 
d="M459 134h-92v-134h-90v134h-262v80l232 334h120v-340h92v-74zM100 208h179v71c0 62 0 126 2 188h-2c-38 -58 -77 -115 -118 -173z" />
    <glyph glyph-name="five.smcp" horiz-adv-x="478" 
d="M407 471h-251l-14 -150h2c26 28 68 42 109 42c110 0 182 -71 182 -181c0 -118 -80 -194 -200 -194c-115 0 -192 60 -192 161h94c1 -54 42 -85 97 -85c66 0 107 43 107 114c0 69 -40 110 -104 110c-51 0 -85 -26 -98 -72l-90 6l30 326h328v-77z" />
    <glyph glyph-name="six.smcp" horiz-adv-x="478" 
d="M254 560c104 0 171 -59 180 -157h-94c-9 54 -39 81 -89 81c-73 0 -120 -59 -124 -190h2c34 44 76 63 134 63c106 0 178 -72 178 -179c0 -113 -80 -190 -197 -190c-130 0 -204 90 -204 267c0 197 78 305 214 305zM245 284c-62 0 -104 -44 -104 -108
c0 -70 41 -111 104 -111c61 0 102 44 102 111c0 65 -40 108 -102 108z" />
    <glyph glyph-name="seven.smcp" horiz-adv-x="478" 
d="M433 548v-78c-84 -117 -157 -283 -194 -470h-101c48 209 128 370 201 469h-303v79h397z" />
    <glyph glyph-name="eight.smcp" horiz-adv-x="478" 
d="M239 560c112 0 191 -63 191 -152c0 -58 -36 -99 -95 -123v-2c68 -22 106 -68 106 -134c0 -98 -81 -161 -202 -161s-201 63 -201 161c0 66 37 112 105 134v2c-59 24 -95 65 -95 123c0 89 80 152 191 152zM239 484c-60 0 -100 -31 -100 -81c0 -52 39 -85 100 -85
s100 33 100 85c0 50 -40 81 -100 81zM239 245c-65 0 -108 -37 -108 -90c0 -56 43 -91 108 -91c66 0 108 35 108 91c0 53 -43 90 -108 90z" />
    <glyph glyph-name="nine.smcp" horiz-adv-x="478" 
d="M225 -12c-105 0 -172 59 -181 157h94c9 -54 39 -81 89 -81c74 0 120 59 124 190h-2c-34 -44 -76 -63 -134 -63c-105 0 -178 72 -178 179c0 113 80 190 197 190c130 0 205 -90 205 -267c0 -197 -79 -305 -214 -305zM233 264c62 0 104 44 104 108c0 70 -41 111 -104 111
c-60 0 -102 -44 -102 -111c0 -65 40 -108 102 -108z" />
    <glyph glyph-name="zero.lf.smcp" horiz-adv-x="509" 
d="M255 560c134 0 208 -102 208 -286s-74 -286 -208 -286c-135 0 -209 102 -209 286s74 286 209 286zM255 483c-74 0 -114 -74 -114 -209c0 -136 40 -210 114 -210c73 0 114 74 114 210c0 135 -41 209 -114 209z" />
    <glyph glyph-name="one.lf.smcp" horiz-adv-x="321" 
d="M232 0h-91v386h-128v69c90 0 130 26 141 93h78v-548z" />
    <glyph glyph-name="two.lf.smcp" horiz-adv-x="493" 
d="M249 560c112 0 185 -64 185 -157c0 -95 -67 -143 -155 -191c-107 -58 -129 -90 -130 -135h299v-77h-399c-1 6 -1 14 -1 20c0 108 28 169 165 246c81 45 126 75 126 137c0 47 -34 80 -90 80c-66 0 -97 -37 -100 -100h-93c3 112 79 177 193 177z" />
    <glyph glyph-name="three.lf.smcp" horiz-adv-x="487" 
d="M241 560c118 0 190 -61 190 -151c0 -63 -29 -101 -95 -126v-2c72 -25 103 -66 103 -135c0 -94 -79 -158 -198 -158c-128 0 -201 67 -201 181h94c0 -71 37 -105 107 -105c63 0 105 34 105 85c0 59 -44 91 -126 91h-19v74h20c72 0 117 33 117 86c0 51 -39 84 -100 84
c-64 0 -100 -33 -100 -101h-92c0 111 75 177 195 177z" />
    <glyph glyph-name="four.lf.smcp" horiz-adv-x="471" 
d="M457 134h-92v-134h-90v134h-262v80l232 334h120v-340h92v-74zM99 208h178v71c0 62 1 126 2 188h-2c-38 -58 -77 -115 -118 -173z" />
    <glyph glyph-name="five.lf.smcp" horiz-adv-x="488" 
d="M412 471h-251l-14 -150h2c26 28 68 42 109 42c110 0 182 -71 182 -181c0 -118 -80 -194 -200 -194c-115 0 -192 60 -192 161h94c1 -54 42 -85 97 -85c66 0 107 43 107 114c0 69 -40 110 -104 110c-51 0 -85 -26 -98 -72l-90 6l30 326h328v-77z" />
    <glyph glyph-name="six.lf.smcp" horiz-adv-x="489" 
d="M260 560c104 0 172 -59 181 -157h-94c-9 54 -39 81 -89 81c-74 0 -120 -59 -124 -190h2c34 44 76 63 134 63c105 0 178 -72 178 -179c0 -113 -80 -190 -197 -190c-131 0 -205 90 -205 267c0 197 79 305 214 305zM252 284c-62 0 -104 -44 -104 -108
c0 -70 41 -111 104 -111c60 0 102 44 102 111c0 65 -40 108 -102 108z" />
    <glyph glyph-name="seven.lf.smcp" horiz-adv-x="424" 
d="M410 548v-78c-84 -117 -157 -283 -194 -470h-101c48 209 128 370 201 469h-303v79h397z" />
    </font>
</defs>
</svg>
